Tags
Language
Tags

Nathalie Stutzmann, Roy Goodman, The Hanover Band - Handel: Opera Arias (2005)

Posted By:
Nathalie Stutzmann, Roy Goodman, The Hanover Band - Handel: Opera Arias (2005)

Nathalie Stutzmann, Roy Goodman, The Hanover Band - Handel: Opera Arias (2005)
EAC | FLAC | Image (Cue & Log) ~ 293 Mb | Total time: 68:42 | Scans included
Classical | Label: RCA | 09026 61205 2 | Recorded: 1991

The contralto Nathalie Stutzmann was not yet 30 years of age when she made this extraordinarily dramatic recording of arias from Handels Italian operas. It showcases her impressive depth of tone, a voice of tremendous indeed, in these days, almost unrivalled projection that inevitably brings to mind the great contraltos of yore from Clara Butt to Marian Anderson. Stutzmann was, and remains, however, an entirely modern artist, who has continued to innovate in her choice of repertoire and musical partners. Many of these arias were written for castrati and countertenors, who nonetheless sang, we are led to believe, with quite a different, more earthy timbre, than we are accustomed to hear from countertenors today. In that sense Stutzmanns assumption of these often powerfully dramatic scenes of love and rage and despair presents an intriguing throwback to the age when they were first performed, especially when, as here, she is accompanied by a period-instrument band who are themselves soaked in Handels idiom.

Performer:
Nathalie Stutzmann, contralto
The Hanover Band
Roy Goodman, conductor

Track List:
01. Fammi Combattere (Orlando, Act I)
02. Qui l'augel da pianta in pianta (Aci, Galatea e Poliremo)
03. Cara sposa (Rinaldo, Act I)
04. Ah Stigie larve! (Orlando, Act II)
05. Va tacito e nascosto (Giulio Cesare, Act I)
06. Bramo te sola (Floridante, Act II)
07. Se dolce m'era gia (Floridante, Act III)
08. Furibondo Spira Il Vento (Partenope, Act II)
09. Se in fiorito (Giulio Cesare, Act II)
10. Ombra cara di mia sposa (Radamisto, Act II)


Exact Audio Copy V1.5 from 20. February 2020

EAC extraction logfile from 14. September 2020, 22:44

Nathalie Stutzmann, Roy Goodman, The Hanover Band / Handel - Opera Arias

Used drive : PIONEER DVD-RW DVR-218L Adapter: 1 ID: 0

Read mode : Secure
Utilize accurate stream : Yes
Defeat audio cache : Yes
Make use of C2 pointers : No

Read offset correction : 6
Overread into Lead-In and Lead-Out : No
Fill up missing offset samples with silence : Yes
Delete leading and trailing silent blocks : No
Null samples used in CRC calculations : Yes
Used interface : Native Win32 interface for Win NT & 2000

Used output format : User Defined Encoder
Selected bitrate : 128 kBit/s
Quality : High
Add ID3 tag : No
Command line compressor : C:\Program Files\Exact Audio Copy\Flac\flac.exe
Additional command line options : -V -8 -T "Date=%year%" -T "Genre=%genre%" %source%


TOC of the extracted CD

Track | Start | Length | Start sector | End sector
––––––––––––––––––––––––––––-
1 | 0:00.00 | 3:36.25 | 0 | 16224
2 | 3:36.25 | 7:32.72 | 16225 | 50196
3 | 11:09.22 | 10:51.08 | 50197 | 99029
4 | 22:00.30 | 7:25.32 | 99030 | 132436
5 | 29:25.62 | 6:06.00 | 132437 | 159886
6 | 35:31.62 | 5:13.53 | 159887 | 183414
7 | 40:45.40 | 7:10.25 | 183415 | 215689
8 | 47:55.65 | 4:18.62 | 215690 | 235101
9 | 52:14.52 | 6:45.68 | 235102 | 265544
10 | 59:00.45 | 9:39.62 | 265545 | 309031


Range status and errors

Selected range

Filename C:\ArlegZ\Nathalie Stutzmann - Handel - Opera Arias.wav

Peak level 99.6 %
Extraction speed 2.1 X
Range quality 99.9 %
Test CRC 1F6E0EC8
Copy CRC 1F6E0EC8
Copy OK

No errors occurred


AccurateRip summary

Track 1 cannot be verified as accurate (confidence 7) [344ECC31], AccurateRip returned [5A96BC28] (AR v2)
Track 2 cannot be verified as accurate (confidence 7) [05EE6102], AccurateRip returned [94C5A037] (AR v2)
Track 3 cannot be verified as accurate (confidence 7) [D756584E], AccurateRip returned [1646A809] (AR v2)
Track 4 cannot be verified as accurate (confidence 7) [7A4B89D2], AccurateRip returned [73968A27] (AR v2)
Track 5 cannot be verified as accurate (confidence 7) [9910418F], AccurateRip returned [2D589033] (AR v2)
Track 6 cannot be verified as accurate (confidence 7) [34D918A3], AccurateRip returned [98F1742E] (AR v2)
Track 7 cannot be verified as accurate (confidence 7) [EF02F9E3], AccurateRip returned [A5CBB2E4] (AR v2)
Track 8 cannot be verified as accurate (confidence 7) [E06CAA7A], AccurateRip returned [F21CB60C] (AR v2)
Track 9 cannot be verified as accurate (confidence 7) [0CE405E3], AccurateRip returned [6173FB9A] (AR v2)
Track 10 cannot be verified as accurate (confidence 7) [ED3A25B1], AccurateRip returned [4C587185] (AR v2)

No tracks could be verified as accurate
You may have a different pressing from the one(s) in the database

End of status report

–– CUETools DB Plugin V2.1.6

[CTDB TOCID: b_6uUUaGJhqVd9IzzlL2SLIvzWc-] found
Submit result: b_6uUUaGJhqVd9IzzlL2SLIvzWc- has been confirmed
Track | CTDB Status
1 | (16/16) Accurately ripped
2 | (16/16) Accurately ripped
3 | (16/16) Accurately ripped
4 | (16/16) Accurately ripped
5 | (16/16) Accurately ripped
6 | (16/16) Accurately ripped
7 | (16/16) Accurately ripped
8 | (16/16) Accurately ripped
9 | (16/16) Accurately ripped
10 | (16/16) Accurately ripped


==== Log checksum E5DD61363502F991BCE3AF0AF44D7ADDC2ED59FD7BEC16CBADAC0E43EC9A08D3 ====

Nathalie Stutzmann, Roy Goodman, The Hanover Band - Handel: Opera Arias (2005)