Subcategories

Neil Diamond - Hot August Night III (2018) [BDRip 1080p]

Posted By: juanchito
Neil Diamond - Hot August Night III (2018) [BDRip 1080p]

Neil Diamond - Hot August Night III (2018)
BDRip 1080p | MKV | 1920x1080 @ 9451 kbps | Audio: DTS 5.1 @ 1509 kbps
Genre: Folk Rock, Country Rock | Length: 02:22:00 | 11.04 GB


Los Angeles – June 22, 2018 – On August 17, Capitol/UMe will celebrate one of the century’s most electrifying live albums, with the release of Neil Diamond’s Hot August Night Ill, a live concert DVD/CD Blu-Ray multi-disc set. Hot August Night Ill chronicles Diamond’s triumphant return to the legendary Greek Theatre in Los Angeles in August 2012.The magical evening was Diamond’s 40th anniversary celebration of the original multiplatinum-selling Hot August Night collection that was recorded at the very same venue in 1972.

Neil Diamond - Hot August Night III (2018) [BDRip 1080p]

Neil Diamond - Hot August Night III (2018) [BDRip 1080p]

Neil Diamond - Hot August Night III (2018) [BDRip 1080p]

Neil Diamond - Hot August Night III (2018) [BDRip 1080p]

Neil Diamond - Hot August Night III (2018) [BDRip 1080p]


Track Listing
1. Overture - Soolaimon
2. Soolaimon
3. Beautiful Noise
4. Forever In Blue Jeans
5. Love On The Rocks
6. Hello Again
7. September Morn
8. Play Me
9. Shilo
10. Red, Red Wine
11. You Got To Me
12. Girl You'll Be A Woman Soon
13. Thank The Lord For The Night Time
14. Cherry, Cherry
15. Kentucky Woman
16. Solitary Man
17. Glory Road
18. Chelsea Morning
19. I'm A Believer
20. Happy Birthday Rose
21. Cracklin' Rosie
22. And The Grass Won't Pay No Mind
23. Pretty Amazing Grace
24. We
25. Stones
26. You Don't Bring Me Flowers
27. Holly Holy
28. Morningside
29. Crunchy Granola Suite
30. Sweet Caroline
31. Sweet Caroline - Reprise
32. I Am… I Said
33. I Am… I Said - Walk Off - Instrumental
34. America
35. Brother Love's Travelling Salvation Show
36. I've Been This Way Before
37. Walk Off/Credits
38. Band Bows
39. Audience Exit - Instrumental
40. Behind The Scenes Feature

General
Unique ID : 235067489516657006659562180383298837002 (0xB0D85A09171AC10E885C5B8FAD645A0A)
Complete name : A:\Roberto Cumbreta\Sheryl Crow Live at the Capitol Theater 2018 1080p BRRip X264 AC3 MutzNutz.mkv
Format : Matroska
Format version : Version 2
File size : 4.01 GiB
Duration : 2 h 1 min
Overall bit rate : 4 712 kb/s
Encoded date : UTC 2019-05-04 19:46:00
Writing application : mkvmerge v7.7.0 ('Six Voices') 32bit built on Feb 28 2015 23:23:00
Writing library : libebml v1.3.1 + libmatroska v1.4.2

Video
ID : 1
Format : AVC
Format/Info : Advanced Video Codec
Format profile : High@L4.1
Format settings : CABAC / 4 Ref Frames
Format settings, CABAC : Yes
Format settings, Reference frames : 4 frames
Codec ID : V_MPEG4/ISO/AVC
Duration : 2 h 1 min
Bit rate : 4 263 kb/s
Width : 1 904 pixels
Height : 1 072 pixels
Display aspect ratio : 16:9
Frame rate mode : Constant
Frame rate : 23.976 (24000/1001) FPS
Color space : YUV
Chroma subsampling : 4:2:0
Bit depth : 8 bits
Scan type : Progressive
Bits/(Pixel*Frame) : 0.087
Stream size : 3.62 GiB (90%)
Writing library : x264 core 146 r2538 121396c
Encoding settings : cabac=1 / ref=3 / deblock=1:-1:-1 / analyse=0x3:0x113 / me=hex / subme=7 / psy=1 / psy_rd=1.00:0.15 / mixed_ref=1 / me_range=16 / chroma_me=1 / trellis=2 / 8x8dct=1 / cqm=0 / deadzone=21,11 / fast_pskip=1 / chroma_qp_offset=-3 / threads=6 / lookahead_threads=1 / sliced_threads=0 / nr=0 / decimate=1 / interlaced=0 / bluray_compat=0 / constrained_intra=0 / bframes=3 / b_pyramid=2 / b_adapt=1 / b_bias=0 / direct=1 / weightb=1 / open_gop=0 / weightp=2 / keyint=240 / keyint_min=23 / scenecut=40 / intra_refresh=0 / rc_lookahead=40 / rc=2pass / mbtree=1 / bitrate=4263 / ratetol=1.0 / qcomp=0.80 / qpmin=0 / qpmax=69 / qpstep=4 / cplxblur=20.0 / qblur=0.5 / vbv_maxrate=62500 / vbv_bufsize=78125 / nal_hrd=none / filler=0 / ip_ratio=1.40 / aq=1:1.00
Default : Yes
Forced : No

Audio
ID : 2
Format : AC-3
Format/Info : Audio Coding 3
Commercial name : Dolby Digital
Codec ID : A_AC3
Duration : 2 h 1 min
Bit rate mode : Constant
Bit rate : 448 kb/s
Channel(s) : 6 channels
Channel layout : L R C LFE Ls Rs
Sampling rate : 48.0 kHz
Frame rate : 31.250 FPS (1536 SPF)
Bit depth : 16 bits
Compression mode : Lossy
Stream size : 390 MiB (10%)
Language : English
Service kind : Complete Main
Default : Yes
Forced : No