Subcategories

Neil Young - Hitchhiker (2017)

Posted By: Pisulik
Neil Young - Hitchhiker (2017)

Neil Young - Hitchhiker (2017)
EAC Rip | FLAC (Tracks) +cue, log, m3u, artworks - 271 MB | 00:33:37
Folk Rock, Acoustic, Singer-Songwriter | Label: Reprise

The unreleased solo acoustic album recorded in 1976, which includes includes solo, acoustic songs recorded in 1976 at the Indigo Ranch Studios in Malibu, California and featuring 2 previously unreleased songs! Although Hitchhiker isn't Neil Young's first abandoned album to be unearthed later, it's certainly his most realized — impressive, given these songs were recorded quickly in a single session in 1976. Armed with only an acoustic guitar and harmonica (and a studio piano for "The Old Country Waltz"), Young left the studio that evening having recorded some of his strongest songs to date; he envisioned the lo-fi recording to be released as is before Reprise, his record label, flat-out objected.

After he abandoned the recordings, Young used rerecordings of eight of these songs on a series of future albums between 1977's American Stars 'n Bars ("The Old Country Waltz") and 2010's Le Noise ("Hitchhiker"). Elsewhere, songs like "Pocahontas" and "Powderfinger" (both redone with Crazy Horse for 1979's Rust Never Sleeps), along with the underrated "Campaigner" (re-recorded for 1977 collection Decade) and "Human Highway" (later on 1978's Comes a Time) show just how fertile and adventurous of a songwriter Young had become by the mid '70s.

Although it would be easy (but erroneous) to overlook this collection as an unessential novelty (especially since one of the two unreleased songs, "Hawaii," stands as a bit of a throwaway), it's fascinating to hear these songs sequenced together, as the album takes on a bit of a new narrative that shows 1976-era Young as a man out on his own, fearing the unknown while dealing with the harsh realities of life, as laid out by songs like "Powderfinger," "Give Me Strength" and the title track.

Although Young's had plenty of highs and lows throughout his sprawling discography, there's no question that each of his 38 studio LPs were results of a particular vision, and Hitchhiker benefits greatly from this fleeting vision captured over a single evening in 1976.

„Recorded over the course of one lazy, stoned day in Malibu in 1976, Hitchhiker was never bootlegged, unlike Homegrown and Chrome Dreams, its unreleased cousins from the mid-'70s. Neil Young first let its existence be known in 2014, when he mentioned a 1976 solo acoustic session recorded with longtime producer David Briggs that was "a complete piece." Most of the songs from that complete piece drifted out in different versions over the years, starting with the appearance of "Campaigner" on 1977's Decade the only time a song from this session saw the light of day prior to its complete release in 2017 running through three songs on Rust Never Sleeps and ending in 2010, when "Hitchhiker" showed up on Le Noise. At the time of the release of that Daniel Lanois-produced record, Young claimed that "Hitchhiker" was left "unfinished" until 2010, but any longtime Young watcher knows he's at his best when he doesn't tie up loose ends, which is one of the reasons Hitchhiker is compelling. Although Young is correct when he claims Hitchhiker is a "complete piece" it sustains a dusky sweetness from beginning to an end it is certainly not a polished album. Often, it feels as if Young is singing with no intention of his music being heard by a wider audience, but the presence of Briggs at the board means this doesn't sound like a ragged demo. Instead, Hitchhiker holds together as a mood piece, an album where Young slowly reckons with a new dawn after surviving a hectic mid-'70s. It is the epilogue to his "Ditch Trilogy," the descent into darkness that began with 1973's Time Fades Away and ended with 1975's Tonight's the Night, an album where the melancholy undercurrent never overwhelms the suggestion of cautious optimism. This delicate tone is what separates Hitchhiker from the shelved Chrome Dreams or Rust Never Sleeps, the two records that rely so heavily on shared material with this album. Those records are assured and confident, the work of somebody who has shaken off the ghosts who were stalking him. On Hitchhiker, Young still isn't certain if he's exorcized those demons, and that unease gives just enough complexity to the album's soothing ebb and flow."

TRACKLIST

01. Pocahontas (Original release at Rust Never Sleeps (1979), with overdubs)
02. Powderfinger (Original release at Rust Never Sleeps (1979), recorded live with Crazy Horse)
03. Captain Kennedy (Original release at Hawks & Doves (1980))
04. Hawaii (previously unreleased)
05. Give Me Strength (previously unreleased)
06. Ride My Llama (Original release at Rust Never Sleeps (1979), in a solo live performance)
07. Hitchhiker (Original release at Le Noise (2010), recorded with electric guitar)
08. Campaigner (Original release at Decade (1977), edited to remove a verse)
09. Human Highway (Original release at Comes a Time (1978), recorded with band)
10. The Old Country Waltz (Original release at American Stars 'n Bars (1977), recorded with Crazy Horse)

Exact Audio Copy V1.3 from 2. September 2016

EAC extraction logfile from 14. October 2017, 0:47

Neil Young / Hitchhiker

Used drive : ASUS DRW-24F1ST a Adapter: 1 ID: 0

Read mode : Secure
Utilize accurate stream : Yes
Defeat audio cache : Yes
Make use of C2 pointers : No

Read offset correction : 6
Overread into Lead-In and Lead-Out : No
Fill up missing offset samples with silence : Yes
Delete leading and trailing silent blocks : No
Null samples used in CRC calculations : Yes
Used interface : Native Win32 interface for Win NT & 2000
Gap handling : Appended to previous track

Used output format : User Defined Encoder
Selected bitrate : 128 kBit/s
Quality : High
Add ID3 tag : No
Command line compressor : C:\Program Files (x86)\Exact Audio Copy\FLAC\FLAC.EXE
Additional command line options : -8 -V -T "ARTIST=%artist%" -T "TITLE=%title%" -T "ALBUM=%albumtitle%" -T "DATE=%year%" -T "TRACKNUMBER=%tracknr%" -T "TOTALTRACKS=%numtracks%" -T "GENRE=%genre%" -T "ALBUMARTIST=%albumartist%" -T "ALBUM ARTIST=%albumartist%" -T "COMMENT=EAC Secure Mode, Test & Copy, AccurateRip, FLAC -8" %source%


TOC of the extracted CD

Track | Start | Length | Start sector | End sector
––––––––––––––––––––––––––––-
1 | 0:00.00 | 3:26.46 | 0 | 15495
2 | 3:26.46 | 3:22.62 | 15496 | 30707
3 | 6:49.33 | 2:51.45 | 30708 | 43577
4 | 9:41.03 | 2:38.28 | 43578 | 55455
5 | 12:19.31 | 3:40.22 | 55456 | 71977
6 | 15:59.53 | 1:50.20 | 71978 | 80247
7 | 17:49.73 | 4:37.19 | 80248 | 101041
8 | 22:27.17 | 4:19.56 | 101042 | 120522
9 | 26:46.73 | 3:16.64 | 120523 | 135286
10 | 30:03.62 | 3:37.44 | 135287 | 151605


Track 1

Filename L:\EAC\01 - Pocahontas.wav

Pre-gap length 0:00:02.00

Peak level 97.5 %
Extraction speed 1.6 X
Track quality 100.0 %
Test CRC F4982E8A
Copy CRC F4982E8A
Accurately ripped (confidence 18) [1AE94DD1] (AR v2)
Copy OK

Track 2

Filename L:\EAC\02 - Powderfinger.wav

Peak level 89.5 %
Extraction speed 1.5 X
Track quality 99.9 %
Test CRC 81E70214
Copy CRC 81E70214
Accurately ripped (confidence 18) [86A94ED8] (AR v2)
Copy OK

Track 3

Filename L:\EAC\03 - Captain Kennedy.wav

Peak level 82.3 %
Extraction speed 1.8 X
Track quality 100.0 %
Test CRC 6A97E572
Copy CRC 6A97E572
Accurately ripped (confidence 18) [DF138621] (AR v2)
Copy OK

Track 4

Filename L:\EAC\04 - Hawaii.wav

Peak level 69.1 %
Extraction speed 1.6 X
Track quality 99.9 %
Test CRC 44E0B106
Copy CRC 44E0B106
Accurately ripped (confidence 18) [359A23BB] (AR v2)
Copy OK

Track 5

Filename L:\EAC\05 - Give Me Strength.wav

Peak level 69.9 %
Extraction speed 2.1 X
Track quality 100.0 %
Test CRC 5BE4F711
Copy CRC 5BE4F711
Accurately ripped (confidence 18) [1D951E97] (AR v2)
Copy OK

Track 6

Filename L:\EAC\06 - Ride My Llama.wav

Peak level 75.0 %
Extraction speed 1.9 X
Track quality 100.0 %
Test CRC 50FABFDF
Copy CRC 50FABFDF
Accurately ripped (confidence 18) [D66A8EF4] (AR v2)
Copy OK

Track 7

Filename L:\EAC\07 - Hitchhiker.wav

Peak level 82.0 %
Extraction speed 2.4 X
Track quality 100.0 %
Test CRC 542973B3
Copy CRC 542973B3
Accurately ripped (confidence 17) [20372432] (AR v2)
Copy OK

Track 8

Filename L:\EAC\08 - Campaigner.wav

Peak level 75.6 %
Extraction speed 2.5 X
Track quality 100.0 %
Test CRC 76C74952
Copy CRC 76C74952
Accurately ripped (confidence 18) [A5DC7541] (AR v2)
Copy OK

Track 9

Filename L:\EAC\09 - Human Highway.wav

Peak level 90.1 %
Extraction speed 2.2 X
Track quality 99.9 %
Test CRC 803D8246
Copy CRC 803D8246
Accurately ripped (confidence 18) [9162C655] (AR v2)
Copy OK

Track 10

Filename L:\EAC\10 - The Old Country Waltz.wav

Peak level 93.2 %
Extraction speed 2.6 X
Track quality 100.0 %
Test CRC DC408DA2
Copy CRC DC408DA2
Accurately ripped (confidence 17) [A0B0D4A0] (AR v2)
Copy OK


All tracks accurately ripped

No errors occurred

End of status report

–– CUETools DB Plugin V2.1.6

[CTDB TOCID: u02Kzp.0aFSC5yvzddm.9CEMMbk-] found
Submit result: already submitted
Track | CTDB Status
1 | (105/106) Accurately ripped
2 | (105/106) Accurately ripped
3 | (105/106) Accurately ripped
4 | (105/106) Accurately ripped
5 | (105/106) Accurately ripped
6 | (105/106) Accurately ripped
7 | (105/106) Accurately ripped
8 | (105/106) Accurately ripped
9 | (105/106) Accurately ripped
10 | (105/106) Accurately ripped


==== Log checksum 9138321FED9DC36B5A40C016ED782BB9000215F323A4E5F687085A2C196C743D ====


All thanks go to the original releaser