Tags
Language
Tags

Neville Marriner, Academy of St Martin in the Fields - Baroque Cantatas and Concertos (1995)

Posted By: ArlegZ
Neville Marriner, Academy of St Martin in the Fields - Baroque Cantatas and Concertos (1995)

Neville Marriner, Academy of St Martin in the Fields - Baroque Cantatas and Concertos (1995)
EAC | FLAC | Image (Cue & Log) ~ 316 Mb | Total time: 59:47 | Scans included
Classical | Label: EMI | 5 65558 2 | Recorded: 1982-1984

The Academy of St Martin in the Fields was founded in 1959 by Sir Neville Marriner and a group of London’s leading orchestral players. Originally formed as a small conductorless string group, it spearheaded the 1950’s Baroque revival.

Performer:
Helen Donath, soprano
Maurice Andre, trumpet
Bernard Soustrot, trumpet
Daniel Arrignon, oboe
Iona Brown, violin
Academy of St Martin in the Fields
Neville Marriner, conductor

Track List:
Antonio Vivaldi
Double Trumpet Concerto for 2 trumpets, strings & continuo in C major, RV 537
01. 1. Allegro
02. 2. Largo
03. 3. Allegro
Johann Sebastian Bach
Cantata No. 51, "Jauchzet Gott in allen Landen," BWV 51 (BC A134)
04. Aria. Jauchzet Gott in allen Landen
05. Recitative. Wir beten zu den Tempel an
06. Aria. Höchster, mache deine Güte
07. Chorale. Sei lob und preis mit Ehren
08. Alleluia
Tomaso Albinoni
Concerto à cinque, for 2 oboes, 2 violins, viola, cello & continuo No. 3 in F major, Op. 9/3 (T. 9/3)
09. 1. Allegro
10. 2. Adagio (non troppo)
11. 3. Allegro
Alessandro Scarlatti
Su le sponde del Tebro, chamber cantata for soprano, 2 violins, trumpet & continuo
12. Sinfonia
13. Recitative. Su le sponde del Tebro
14. Sinfonia
15. Aria. Contentatevi
16. Recitative. Mesto, stanco e spirante
17. Largo. Infelice miei lumi
18. Aria. Dite almeno
19. Ritornello
20. Recitative. All'aura, al cielo
21. Aria. Tralascia pur di piangere
Antonio Vivaldi
Double Concerto, for violin & oboe, strings & continuo in B flat major, RV 548
22. 1. Allegro
23. 2. Largo
24. 3. Allegro
Gottfried Heinrich Stölzel
Concerto for trumpet & orchestra in D major
25. 1. Allegro
26. 2. Andante
27. 3. Allegro


Exact Audio Copy V1.4 from 3. February 2020

EAC extraction logfile from 21. February 2020, 11:21

Neville Marriner / Baroque Cantatas And Concertos

Used drive : HL-DT-STBD-RE WH16NS40 Adapter: 1 ID: 0

Read mode : Secure
Utilize accurate stream : Yes
Defeat audio cache : Yes
Make use of C2 pointers : No

Read offset correction : 6
Overread into Lead-In and Lead-Out : No
Fill up missing offset samples with silence : Yes
Delete leading and trailing silent blocks : No
Null samples used in CRC calculations : Yes
Used interface : Native Win32 interface for Win NT & 2000

Used output format : User Defined Encoder
Selected bitrate : 1024 kBit/s
Quality : High
Add ID3 tag : No
Command line compressor : C:\Program Files (x86)\Exact Audio Copy\FLAC\FLAC.EXE
Additional command line options : -6 -V -T "ARTIST=%artist%" -T "TITLE=%title%" -T "ALBUM=%albumtitle%" -T "DATE=%year%" -T "TRACKNUMBER=%tracknr%" -T "GENRE=%genre%" -T "COMMENT=%comment%" -T "BAND=%albuminterpret%" -T "ALBUMARTIST=%albuminterpret%" -T "COMPOSER=%composer%" %haslyrics%–tag-from-file=LYRICS="%lyricsfile%"%haslyrics% -T "DISCNUMBER=%cdnumber%" -T "TOTALDISCS=%totalcds%" -T "TOTALTRACKS=%numtracks%" %hascover%–picture="%coverfile%"%hascover% %source% -o %dest%


TOC of the extracted CD

Track | Start | Length | Start sector | End sector
––––––––––––––––––––––––––––-
1 | 0:00.33 | 2:56.42 | 33 | 13274
2 | 2:57.00 | 1:03.05 | 13275 | 18004
3 | 4:00.05 | 3:22.70 | 18005 | 33224
4 | 7:23.00 | 3:48.15 | 33225 | 50339
5 | 11:11.15 | 2:14.05 | 50340 | 60394
6 | 13:25.20 | 4:01.70 | 60395 | 78539
7 | 17:27.15 | 3:52.38 | 78540 | 95977
8 | 21:19.53 | 2:01.20 | 95978 | 105072
9 | 23:20.73 | 4:32.37 | 105073 | 125509
10 | 27:53.35 | 2:18.03 | 125510 | 135862
11 | 30:11.38 | 3:38.35 | 135863 | 152247
12 | 33:49.73 | 1:29.57 | 152248 | 158979
13 | 35:19.55 | 0:53.00 | 158980 | 162954
14 | 36:12.55 | 0:16.08 | 162955 | 164162
15 | 36:28.63 | 2:25.70 | 164163 | 175107
16 | 38:54.58 | 1:05.42 | 175108 | 180024
17 | 40:00.25 | 2:48.55 | 180025 | 192679
18 | 42:49.05 | 2:40.60 | 192680 | 204739
19 | 45:29.65 | 0:44.50 | 204740 | 208089
20 | 46:14.40 | 0:51.58 | 208090 | 211972
21 | 47:06.23 | 1:28.55 | 211973 | 218627
22 | 48:35.03 | 3:57.55 | 218628 | 236457
23 | 52:32.58 | 3:03.42 | 236458 | 250224
24 | 55:36.25 | 2:13.45 | 250225 | 260244
25 | 57:49.70 | 3:00.73 | 260245 | 273817
26 | 60:50.68 | 2:52.12 | 273818 | 286729
27 | 63:43.05 | 2:39.15 | 286730 | 298669


Range status and errors

Selected range

Filename C:\Users\Grant\Desktop\Neville Marriner - Baroque Cantatas And Concertos.wav

Peak level 97.7 %
Extraction speed 8.6 X
Range quality 100.0 %
Test CRC 70928095
Copy CRC 70928095
Copy OK

No errors occurred


AccurateRip summary

Track 1 not present in database
Track 2 not present in database
Track 3 not present in database
Track 4 not present in database
Track 5 not present in database
Track 6 not present in database
Track 7 not present in database
Track 8 not present in database
Track 9 not present in database
Track 10 not present in database
Track 11 not present in database
Track 12 not present in database
Track 13 not present in database
Track 14 not present in database
Track 15 not present in database
Track 16 not present in database
Track 17 not present in database
Track 18 not present in database
Track 19 not present in database
Track 20 not present in database
Track 21 not present in database
Track 22 not present in database
Track 23 not present in database
Track 24 not present in database
Track 25 not present in database
Track 26 not present in database
Track 27 not present in database

None of the tracks are present in the AccurateRip database

End of status report

–– CUETools DB Plugin V2.1.6

[CTDB TOCID: H0FT_PWngxQQxQ4Pd_sBXCHvtKI-] disk not present in database
Submit result: H0FT_PWngxQQxQ4Pd_sBXCHvtKI- has been uploaded


==== Log checksum 8CC285808EAD43E54A8928A5E11CC4329F7ECEAA8B0253C4C2FA2B9703D36C94 ====

Neville Marriner, Academy of St Martin in the Fields - Baroque Cantatas and Concertos (1995)

Thanks to the original releaser