Tags
Language
Tags

Nicholas McGegan, Capella Savaria - Handel: Floridante (1991)

Posted By: ArlegZ
Nicholas McGegan, Capella Savaria - Handel: Floridante (1991)

Nicholas McGegan, Capella Savaria - Handel: Floridante (1991)
EAC | FLAC | Image (Cue & Log) ~ 774 Mb | Total time: 55:04+47:31+57:10 | Scans included
Classical | Label: Hungaroton | # HCD31304-06 | Recorded: 1990

Composing Floridante was not a happy experience for Handel. He had recently acquired a popular rival, Giovanni Bononcini, and was forced to work with a new librettist that was more interested in the poetry of his material than its stageworthiness. However, the most serious problem occurred halfway through writing the opera, in October 1721, when the soprano whom Handel had cast as Elmira fell ill. The directors of the opera house (the Royal Academy of Music, patronized by King George I) decided to replace her with a contralto, Anastasia Robinson, whose voice was more limited in range and agility, but who possessed strong political credentials: she was both Roman Catholic, and the mistress of the Earl of Peterborough. These were important assets to the aristocratic Roman Catholic faction that held sway in the Academy at that time. In turn, her former scheduled part, that of Rossane, was to be given to a soprano, Maddalena Salvai.
Handel was known to be both temperamental and pragmatic. His solution to dealing with Robinson reveals both sides of his character, for he transposed her arias and limited their compass, while otherwise making no concessions to her humbler abilities—this, despite the bravura nature of Elmira’s material, and in complete contrast to his usual method of smoothing matters over by providing new or rewritten music to fresh text. For Salvai, Handel was considerably more forthcoming: he largely rewrote a pair of Rossane’s arias, and completely replaced a third. Where Robinson-as-Rossane would have sung the relatively undemanding but expressive “È un sospir che vien dal core,” Salvai-as-Rossane received “Sospiro, è vero” instead, a saucy piece that recalls the unregenerate Cleopatra in the first two acts of Giulio Cesare.
… All the singers on that recording display fine coloratura, but only the Timante of Mária Zádori adds a brilliant vocal edge and a degree of interpretative skill. The Floridante, countertenor Drew Minter, is strong where Mijanovic is weakest. Florid work is tossed off with astonishing ease and extraordinary breath support. However, there isn’t a hint in his Floridante of emotion. It is a theatrical cipher. McGegan’s tendency to shift abruptly into fourth gear whenever the chance arises doesn’t help when it comes to expressiveness, either.
–Barry Brenesal

Performer:
Floridande – Drew Minter
Oronte – István Gáti
Elmira – Annette Markert
Rossanne – Katalin Farkas
Timante – Mária Zádori
Coralbo – József Moldvay
Capella Savaria
Conductor – Nicholas McGegan

Track List:
CD1:
01. No. 1. Ouverture
02. Atto I. Scena 1. No. 2. Aria (Elmira): Dimmi, o spene!
03. Scena 1. No. 3. Recitativo (Elmira, Rossane): Oggi di Tracia
04. Scena 1. No. 4. Aria (Elmira): Godi, o spene
05. Scena 1. No. 5. Recitativo (Rossane): Avventurosa Elmira
06. Scena 1. No. 6. Aria (Rossane): Ma un dolce mio pensiero
07. Scena 2. No. 7. March
08. Scena 2. No. 8. Recitativo (Floridante, Elmira): Questo de' miei trionfi
09. Scena 2. No. 9. Aria (Floridante): Alma mia
10. Scena 3. No. 10. Recitativo (Rossane, Floridante, Elmira, Timante): Giove, compensator
11. Scena 4. No. 11. Recitativo (Coralbo, Floridante, Elmira, Rossane): Oronte, il Re de Persi
12. Scena 4. No. 12. Recitativo (Floridante, Elmira): Ch'io parta?
13. Scena 4. No. 13. Aria (Elmira): Ma pria vedro le stelle
14. Scena 4. No. 14. Recitativo (Floridante): Fammi bersaglio
15. Scena 4. No. 15. Aria (Floridante): Sventurato
16. Scena 5. No. 16. Recitativo (Rossane, Oronte): Cinto d'allori
17. Scena 5. No. 17. Aria (Oronte): Finche lo strale
18. Scena 5. No. 18. Recitativo (Rossane): Novo aspetto di cose - Scena 6. Recitativo (Rossane, Timante): Ma viene il prigionier
19. Scena 6. No. 19. Aria (Rossane): Sospiro, e vero
20. Scena 6. No. 20. Recitativo (Timante): Per quali vie lontane
21. Scena 6. No. 21. Aria (Timante): Dopo il nembo e la procella
22. Scena 7. No. 22. Recitativo (Floridante, Oronte): Al primo cenno - Scene 8. Recitativo (Elmira, Oronte, Floridante): Padre, Signor
23. Scena 8. No. 23. Duetto (Elmira, Floridante): Ah, mia cara
CD2:
01. Atto II. Scena 1. No. 24. Recitativo (Timante, Rossane): Ecco il vago mio sol
02. Scena 1. No. 25. Aria (Timante): Lascioti, o bella
03. Scena 1. No. 26. Recitativo (Rossane): O fortunati affetti miei
04. Scena 1. No. 27. Aria (Rossane): Gode l'alma inamorata
05. Scena 2. No. 28. Recitativo: (Timante, Floridante) Difficil cosa - Scena 3. (Floridante, Elmira) Fedele Elmira! - Scena 4. (Rossane, Timante, Floridante, Elmira) Glicon, se sei verace
06. Scena 4. No. 29. Aria (Floridante): Bramo te sola
07. Scena 4. No. 30. Recitativo: (Timante, Elmira, Rossane) Oronte un messo invia - Scena 5. (Oronte, Elmira) Questo è il tempo fatal
08. Scena 5. No. 31. Aria (Elmira): Barbaro!
09. Scena 5. No. 32. Recitativo (Oronte): Convien lasciar libero il corso
10. Scena 5. No. 33. Aria (Oronte): Ma non s'aspetti
11. Scena 6. No. 34. Recitativo (Rossane, Timante): Ormai tutta silenzio
12. Scena 6. No. 35. Duetto (Rossane, Timante): Fuor di periglio
13. Scena 7. No. 36. Arioso e Recitativo (Elmira): Notte cara - Parmi ascoltare
14. Scena 8. No. 37. Recitativi: (Floridante, Elmira) O facil porta - Scena 9. (Oronte, Elmira, Floridante) Qual buona sorte
15. Scena 9. No. 38. Aria (Floridante): Tacero
16. Scena 9. No. 39. Recitativo (Oronte): Guardia a costei
17. Scena 9. No. 40. Recitativo accompagnato (Elmira): Sorte nemica
18. Scena 9. No. 41. Aria (Elmira): Ma che vuoi piu da me
CD3:
01. Atto III. Scena 1. No. 42. Recitativo (Timante, Rossane): Giunsi allor
02. Scena 1. No. 43. Aria (Timante): No, non piangete
03. Scena 2. No. 44. Recitativo (Rossane, Elmira, Coralbo): O sventurati e vani
04. Scena 2. No. 45. Aria (Rossane): Se risolvi abbandonarmi
05. Scena 2. No. 46. Recitativo (Coralbo, Elmira): Or mi si svela
06. Scena 2. No. 47. Aria (Coralbo): Non lasciar
07. Scena 3. No. 48. Recitativo: (Oronte, Elmira) Elmira, a te ritorno - Scena 4. (Floridante, Oronte, Elmira) Numi, che aspetto di dolor
08. Scena 4. No. 49. Aria (Floridante): Se dolce m'era gia
09. Scena 4. No. 50. Recitativo (Elmira): Si mora, si
10. Scena 4. No. 51. Aria (Elmira): Vivere per penare
11. Scena 5. No. 52. Recitativo (Timante, Rossane): Nella vasta, citta
12. Scena 5. No. 53. Aria (Rossane): Vanne, segui 'l mio desio!
13. Scena 5. No. 54. Recitativo (Timante): Servasi alla mia bella
14. Scena 5. No. 55. Aria (Timante): Amor commanda
15. Scena 6. No. 56. Aria (Floridante): Questi ceppi
16. Scena 7. No. 57. Recitativo: (Elmira, Floridante) Misero amato Prence! - Scena 8. (Oronte, Floridante, Elmira) Tale non era il cenno mio - Scena 9. (Coralbo, Oronte, Timante) S'uccida chi resiste
17. Scena 9. No. 58. Aria (Elmira): Si, coronar vogl'io
18. Scena 9. No. 59. Recitativo (Oronte): Ah! traditor Coralbo!
19. Scena 9. No. 60. Aria (Oronte): Che veggio?
20. Scena 9. No. 61. Sinfonia
21. Scena 10. No. 62. Recitativo (Elmira, Floridante, Rossane, Timante): Fido e guerriero
22. Scena 10. No. 63. Aria (Floridante): Mia bella
23. Scena 10. No. 64. Recitativo (Elmira): La cittade
24. Scena 10. No. 65. Coro (Tutti): Quando pena la costanza


Exact Audio Copy V1.3 from 2. September 2016

EAC extraction logfile from 8. February 2019, 19:27

Drew Minter, Maria Zadori, Istvan Gati, Jozsef Moldvay, Annette Markert, Katalin Farkas; Nicholas McGegan / Handel - Floridante (Disc 1)

Used drive : ATAPI iHAS124 F Adapter: 1 ID: 0

Read mode : Secure
Utilize accurate stream : Yes
Defeat audio cache : Yes
Make use of C2 pointers : No

Read offset correction : 6
Overread into Lead-In and Lead-Out : No
Fill up missing offset samples with silence : Yes
Delete leading and trailing silent blocks : No
Null samples used in CRC calculations : Yes
Used interface : Native Win32 interface for Win NT & 2000

Used output format : User Defined Encoder
Selected bitrate : 1024 kBit/s
Quality : High
Add ID3 tag : No
Command line compressor : C:\Program Files (x86)\Exact Audio Copy\FLAC\FLAC.EXE
Additional command line options : -6 -V -T "ARTIST=%artist%" -T "TITLE=%title%" -T "ALBUM=%albumtitle%" -T "DATE=%year%" -T "TRACKNUMBER=%tracknr%" -T "GENRE=%genre%" -T "COMMENT=%comment%" -T "BAND=%albuminterpret%" -T "ALBUMARTIST=%albuminterpret%" -T "COMPOSER=%composer%" %haslyrics%–tag-from-file=LYRICS="%lyricsfile%"%haslyrics% -T "DISCNUMBER=%cdnumber%" -T "TOTALDISCS=%totalcds%" -T "TOTALTRACKS=%numtracks%" %hascover%–picture="%coverfile%"%hascover% %source% -o %dest%


TOC of the extracted CD

Track | Start | Length | Start sector | End sector
––––––––––––––––––––––––––––-
1 | 0:00.25 | 4:58.35 | 25 | 22409
2 | 4:58.60 | 2:12.42 | 22410 | 32351
3 | 7:11.27 | 0:35.73 | 32352 | 35049
4 | 7:47.25 | 1:52.57 | 35050 | 43506
5 | 9:40.07 | 0:47.03 | 43507 | 47034
6 | 10:27.10 | 3:13.55 | 47035 | 61564
7 | 13:40.65 | 0:38.40 | 61565 | 64454
8 | 14:19.30 | 0:54.02 | 64455 | 68506
9 | 15:13.32 | 4:35.55 | 68507 | 89186
10 | 19:49.12 | 1:02.53 | 89187 | 93889
11 | 20:51.65 | 1:39.02 | 93890 | 101316
12 | 22:30.67 | 0:49.33 | 101317 | 105024
13 | 23:20.25 | 3:30.67 | 105025 | 120841
14 | 26:51.17 | 0:29.23 | 120842 | 123039
15 | 27:20.40 | 5:47.60 | 123040 | 149124
16 | 33:08.25 | 1:07.07 | 149125 | 154156
17 | 34:15.32 | 3:10.15 | 154157 | 168421
18 | 37:25.47 | 1:09.33 | 168422 | 173629
19 | 38:35.05 | 4:28.45 | 173630 | 193774
20 | 43:03.50 | 0:26.32 | 193775 | 195756
21 | 43:30.07 | 2:15.28 | 195757 | 205909
22 | 45:45.35 | 1:48.47 | 205910 | 214056
23 | 47:34.07 | 7:30.28 | 214057 | 247834


Range status and errors

Selected range

Filename C:\EACRip\Handel - Floridante (Nicholas McGegan) (1991)\CD1\Handel - Floridante (Disc 1) - Nicholas McGegan.wav

Peak level 85.1 %
Extraction speed 2.8 X
Range quality 99.9 %
Test CRC 80F4C612
Copy CRC 68E0CEAF
Copy OK

No errors occurred


AccurateRip summary

Track 1 accurately ripped (confidence 6) [C4FB1B9B] (AR v2)
Track 2 accurately ripped (confidence 6) [4F2E2BB7] (AR v2)
Track 3 accurately ripped (confidence 6) [F10D4F60] (AR v2)
Track 4 accurately ripped (confidence 6) [FC1CD803] (AR v2)
Track 5 accurately ripped (confidence 6) [22DB8A19] (AR v2)
Track 6 accurately ripped (confidence 6) [79FE9DDA] (AR v2)
Track 7 accurately ripped (confidence 6) [7F0B002B] (AR v2)
Track 8 accurately ripped (confidence 6) [CA67AD33] (AR v2)
Track 9 accurately ripped (confidence 6) [16C081B5] (AR v2)
Track 10 accurately ripped (confidence 6) [FB8AFFC7] (AR v2)
Track 11 accurately ripped (confidence 6) [959AF436] (AR v2)
Track 12 accurately ripped (confidence 6) [9EB3E4CA] (AR v2)
Track 13 cannot be verified as accurate (confidence 5) [70AB0186], AccurateRip returned [FE9FFDB2] (AR v2)
Track 14 accurately ripped (confidence 6) [92725B48] (AR v2)
Track 15 accurately ripped (confidence 6) [E3463F52] (AR v2)
Track 16 accurately ripped (confidence 6) [66C59F7B] (AR v2)
Track 17 accurately ripped (confidence 6) [CAFDE497] (AR v2)
Track 18 accurately ripped (confidence 6) [28275497] (AR v2)
Track 19 accurately ripped (confidence 6) [89FCAC9B] (AR v2)
Track 20 accurately ripped (confidence 6) [A101534B] (AR v2)
Track 21 accurately ripped (confidence 6) [63027BA9] (AR v2)
Track 22 accurately ripped (confidence 6) [DDAA2A08] (AR v2)
Track 23 accurately ripped (confidence 5) [58672DA3] (AR v2)

22 track(s) accurately ripped
1 track(s) could not be verified as accurate

Some tracks could not be verified as accurate

End of status report

–– CUETools DB Plugin V2.1.6

[CTDB TOCID: .cwZOYkg7sJx4lg3pXlfWbo4Iq8-] found
Submit result: insufficient quality
Track | CTDB Status
1 | (4/4) Accurately ripped
2 | (4/4) Accurately ripped
3 | (4/4) Accurately ripped
4 | (4/4) Accurately ripped
5 | (4/4) Accurately ripped
6 | (4/4) Accurately ripped
7 | (4/4) Accurately ripped
8 | (4/4) Accurately ripped
9 | (4/4) Accurately ripped
10 | (4/4) Accurately ripped
11 | (4/4) Accurately ripped
12 | (4/4) Accurately ripped
13 | (3/4) Differs in 515 samples @02:45:09-02:45:10,02:46:18-02:46:19,02:46:46-02:46:47,02:46:61,02:47:00,03:14:27,03:14:41,03:14:55,03:14:69,03:15:08,03:15:37,03:15:51,03:29:20,03:29:63,03:30:02,03:30:16,03:30:30
14 | (4/4) Accurately ripped
15 | (4/4) Accurately ripped
16 | (4/4) Accurately ripped
17 | (4/4) Accurately ripped
18 | (4/4) Accurately ripped
19 | (4/4) Accurately ripped
20 | (4/4) Accurately ripped
21 | (4/4) Accurately ripped
22 | (4/4) Accurately ripped
23 | (4/4) Accurately ripped
If you are sure that your rip contains errors, you can use CUETools to repair it.


==== Log checksum B275097D61B3B394685D993E7EF0006612FE432D3981FBD8E94683840B7FDBF9 ====


Exact Audio Copy V1.3 from 2. September 2016

EAC extraction logfile from 8. November 2018, 21:53

Drew Minter, Maria Zadori, Istvan Gati, Jozsef Moldvay, Annette Markert, Katalin Farkas; Nicholas McGegan / Handel - Floridante (Disc 2)

Used drive : ATAPI iHAS124 F Adapter: 1 ID: 0

Read mode : Secure
Utilize accurate stream : Yes
Defeat audio cache : Yes
Make use of C2 pointers : No

Read offset correction : 6
Overread into Lead-In and Lead-Out : No
Fill up missing offset samples with silence : Yes
Delete leading and trailing silent blocks : No
Null samples used in CRC calculations : Yes
Used interface : Native Win32 interface for Win NT & 2000

Used output format : User Defined Encoder
Selected bitrate : 1024 kBit/s
Quality : High
Add ID3 tag : No
Command line compressor : C:\Program Files (x86)\Exact Audio Copy\FLAC\FLAC.EXE
Additional command line options : -8 -V -T "TITLE=%title%" -T "ARTIST=%artist%" -T "ALBUMARTIST=%albumartist%" -T "ALBUM=%albumtitle%" -T "DATE=%year%" -T "TRACKNUMBER=%tracknr%" -T "TRACKTOTAL=%numtracks%" -T "GENRE=%genre%" -T "COMMENT=%comment%" -T "PERFORMER=%albuminterpret%" -T "COMPOSER=%composer%" %source% -o %dest%


TOC of the extracted CD

Track | Start | Length | Start sector | End sector
––––––––––––––––––––––––––––-
1 | 0:00.25 | 1:22.62 | 25 | 6236
2 | 1:23.12 | 3:57.10 | 6237 | 24021
3 | 5:20.22 | 0:37.08 | 24022 | 26804
4 | 5:57.30 | 3:59.40 | 26805 | 44769
5 | 9:56.70 | 2:31.37 | 44770 | 56131
6 | 12:28.32 | 4:57.28 | 56132 | 78434
7 | 17:25.60 | 3:02.07 | 78435 | 92091
8 | 20:27.67 | 2:19.15 | 92092 | 102531
9 | 22:47.07 | 0:24.38 | 102532 | 104369
10 | 23:11.45 | 2:11.15 | 104370 | 114209
11 | 25:22.60 | 0:51.07 | 114210 | 118041
12 | 26:13.67 | 5:26.68 | 118042 | 142559
13 | 31:40.60 | 4:14.07 | 142560 | 161616
14 | 35:54.67 | 2:38.18 | 161617 | 173484
15 | 38:33.10 | 3:19.25 | 173485 | 188434
16 | 41:52.35 | 0:26.12 | 188435 | 190396
17 | 42:18.47 | 1:12.13 | 190397 | 195809
18 | 43:30.60 | 4:00.60 | 195810 | 213869


Range status and errors

Selected range

Filename C:\EACRip\HANDEL\Handel - Floridante (Nicholas McGegan) (1991)\CD2\Handel - Floridante (Disc 2) - Nicholas McGegan.wav

Peak level 96.3 %
Extraction speed 3.0 X
Range quality 100.0 %
Test CRC 724482A3
Copy CRC 724482A3
Copy OK

No errors occurred


AccurateRip summary

Track 1 accurately ripped (confidence 4) [49F4BD17] (AR v2)
Track 2 accurately ripped (confidence 4) [CFA761DB] (AR v2)
Track 3 accurately ripped (confidence 5) [AB0466D9] (AR v2)
Track 4 accurately ripped (confidence 4) [FA5F00A3] (AR v2)
Track 5 accurately ripped (confidence 5) [094CD575] (AR v2)
Track 6 accurately ripped (confidence 5) [F76E2CE4] (AR v2)
Track 7 accurately ripped (confidence 5) [885685B8] (AR v2)
Track 8 accurately ripped (confidence 4) [1E25DC8C] (AR v2)
Track 9 accurately ripped (confidence 5) [626A1673] (AR v2)
Track 10 accurately ripped (confidence 5) [0F75A8DE] (AR v2)
Track 11 accurately ripped (confidence 5) [5EEC6F1F] (AR v2)
Track 12 accurately ripped (confidence 4) [8BF0CD48] (AR v2)
Track 13 accurately ripped (confidence 5) [EED34174] (AR v2)
Track 14 accurately ripped (confidence 5) [DC3B8116] (AR v2)
Track 15 accurately ripped (confidence 5) [D860861F] (AR v2)
Track 16 accurately ripped (confidence 5) [D0365D2A] (AR v2)
Track 17 accurately ripped (confidence 5) [875EBE4A] (AR v2)
Track 18 accurately ripped (confidence 4) [96F13965] (AR v2)

All tracks accurately ripped

End of status report

–– CUETools DB Plugin V2.1.6

[CTDB TOCID: m8XCtQnu7FrhOCUGKEZzNjAyYow-] found
Submit result: m8XCtQnu7FrhOCUGKEZzNjAyYow- has been confirmed
Track | CTDB Status
1 | (2/2) Accurately ripped
2 | (1/2) Accurately ripped
3 | (2/2) Accurately ripped
4 | (2/2) Accurately ripped
5 | (2/2) Accurately ripped
6 | (2/2) Accurately ripped
7 | (2/2) Accurately ripped
8 | (2/2) Accurately ripped
9 | (2/2) Accurately ripped
10 | (2/2) Accurately ripped
11 | (2/2) Accurately ripped
12 | (2/2) Accurately ripped
13 | (2/2) Accurately ripped
14 | (2/2) Accurately ripped
15 | (2/2) Accurately ripped
16 | (2/2) Accurately ripped
17 | (2/2) Accurately ripped
18 | (2/2) Accurately ripped


==== Log checksum 3DE796607D1B538611B9C83D48C41A12F59549BF4F289C366C4E73F32DD48FB5 ====


Exact Audio Copy V1.3 from 2. September 2016

EAC extraction logfile from 8. November 2018, 22:31

Drew Minter, Maria Zadori, Istvan Gati, Jozsef Moldvay, Annette Markert, Katalin Farkas; Nicholas McGegan / Handel - Floridante (Disc 3)

Used drive : ATAPI iHAS124 F Adapter: 1 ID: 0

Read mode : Secure
Utilize accurate stream : Yes
Defeat audio cache : Yes
Make use of C2 pointers : No

Read offset correction : 6
Overread into Lead-In and Lead-Out : No
Fill up missing offset samples with silence : Yes
Delete leading and trailing silent blocks : No
Null samples used in CRC calculations : Yes
Used interface : Native Win32 interface for Win NT & 2000

Used output format : User Defined Encoder
Selected bitrate : 1024 kBit/s
Quality : High
Add ID3 tag : No
Command line compressor : C:\Program Files (x86)\Exact Audio Copy\FLAC\FLAC.EXE
Additional command line options : -8 -V -T "TITLE=%title%" -T "ARTIST=%artist%" -T "ALBUMARTIST=%albumartist%" -T "ALBUM=%albumtitle%" -T "DATE=%year%" -T "TRACKNUMBER=%tracknr%" -T "TRACKTOTAL=%numtracks%" -T "GENRE=%genre%" -T "COMMENT=%comment%" -T "PERFORMER=%albuminterpret%" -T "COMPOSER=%composer%" %source% -o %dest%


TOC of the extracted CD

Track | Start | Length | Start sector | End sector
––––––––––––––––––––––––––––-
1 | 0:00.25 | 0:54.42 | 25 | 4116
2 | 0:54.67 | 3:11.25 | 4117 | 18466
3 | 4:06.17 | 1:17.20 | 18467 | 24261
4 | 5:23.37 | 4:08.40 | 24262 | 42901
5 | 9:32.02 | 0:40.00 | 42902 | 45901
6 | 10:12.02 | 4:00.05 | 45902 | 63906
7 | 14:12.07 | 3:16.60 | 63907 | 78666
8 | 17:28.67 | 6:40.13 | 78667 | 108679
9 | 24:09.05 | 0:48.20 | 108680 | 112299
10 | 24:57.25 | 3:52.25 | 112300 | 129724
11 | 28:49.50 | 1:00.60 | 129725 | 134284
12 | 29:50.35 | 0:48.57 | 134285 | 137941
13 | 30:39.17 | 0:25.35 | 137942 | 139851
14 | 31:04.52 | 2:15.40 | 139852 | 150016
15 | 33:20.17 | 4:42.43 | 150017 | 171209
16 | 38:02.60 | 3:19.02 | 171210 | 186136
17 | 41:21.62 | 3:28.48 | 186137 | 201784
18 | 44:50.35 | 0:28.45 | 201785 | 203929
19 | 45:19.05 | 1:27.32 | 203930 | 210486
20 | 46:46.37 | 0:57.33 | 210487 | 214794
21 | 47:43.70 | 1:51.10 | 214795 | 223129
22 | 49:35.05 | 4:49.10 | 223130 | 244814
23 | 54:24.15 | 0:14.52 | 244815 | 245916
24 | 54:38.67 | 2:31.53 | 245917 | 257294


Range status and errors

Selected range

Filename C:\EACRip\HANDEL\Handel - Floridante (Nicholas McGegan) (1991)\CD3\Handel - Floridante (Disc 3) - Nicholas McGegan.wav

Peak level 89.2 %
Extraction speed 5.8 X
Range quality 100.0 %
Test CRC 7B077D12
Copy CRC 7B077D12
Copy OK

No errors occurred


AccurateRip summary

Track 1 accurately ripped (confidence 5) [2F14011B] (AR v2)
Track 2 accurately ripped (confidence 5) [2854C989] (AR v2)
Track 3 accurately ripped (confidence 5) [F5EAFE10] (AR v2)
Track 4 accurately ripped (confidence 5) [1AB1CDCC] (AR v2)
Track 5 accurately ripped (confidence 5) [9F71A173] (AR v2)
Track 6 accurately ripped (confidence 5) [3F3A5328] (AR v2)
Track 7 accurately ripped (confidence 5) [9B120EF3] (AR v2)
Track 8 accurately ripped (confidence 5) [01F98222] (AR v2)
Track 9 accurately ripped (confidence 5) [CCA95729] (AR v2)
Track 10 accurately ripped (confidence 5) [583B2015] (AR v2)
Track 11 accurately ripped (confidence 5) [489D9DB9] (AR v2)
Track 12 accurately ripped (confidence 5) [B15635A5] (AR v2)
Track 13 accurately ripped (confidence 5) [271DFA0D] (AR v2)
Track 14 accurately ripped (confidence 5) [3E821E4F] (AR v2)
Track 15 accurately ripped (confidence 5) [68C9AE2E] (AR v2)
Track 16 accurately ripped (confidence 5) [D3EB069E] (AR v2)
Track 17 accurately ripped (confidence 5) [1188EFAB] (AR v2)
Track 18 accurately ripped (confidence 5) [CFA575D3] (AR v2)
Track 19 accurately ripped (confidence 5) [35B0A199] (AR v2)
Track 20 accurately ripped (confidence 5) [BCD864FA] (AR v2)
Track 21 accurately ripped (confidence 5) [19EC872A] (AR v2)
Track 22 accurately ripped (confidence 5) [2AC023CD] (AR v2)
Track 23 accurately ripped (confidence 5) [236DC7B1] (AR v2)
Track 24 accurately ripped (confidence 5) [739C63A4] (AR v2)

All tracks accurately ripped

End of status report

–– CUETools DB Plugin V2.1.6

[CTDB TOCID: 6u.EMKBiEDD9R7NW8DAEAD4jlxU-] found
Submit result: 6u.EMKBiEDD9R7NW8DAEAD4jlxU- has been confirmed
Track | CTDB Status
1 | (3/3) Accurately ripped
2 | (3/3) Accurately ripped
3 | (3/3) Accurately ripped
4 | (3/3) Accurately ripped
5 | (3/3) Accurately ripped
6 | (3/3) Accurately ripped
7 | (3/3) Accurately ripped
8 | (3/3) Accurately ripped
9 | (3/3) Accurately ripped
10 | (3/3) Accurately ripped
11 | (3/3) Accurately ripped
12 | (3/3) Accurately ripped
13 | (3/3) Accurately ripped
14 | (3/3) Accurately ripped
15 | (3/3) Accurately ripped
16 | (3/3) Accurately ripped
17 | (3/3) Accurately ripped
18 | (3/3) Accurately ripped
19 | (3/3) Accurately ripped
20 | (3/3) Accurately ripped
21 | (3/3) Accurately ripped
22 | (3/3) Accurately ripped
23 | (3/3) Accurately ripped
24 | (3/3) Accurately ripped


==== Log checksum 6650EDE71A72360853B6315F87B78EBC120ADE60460B806EE7890CF2186C25B7 ====

Nicholas McGegan, Capella Savaria - Handel: Floridante (1991)

Thanks to the original releaser