Tags
Language
Tags

Nicholas McGegan, Freiburger Barockorchester - George Frideric Handel: Ottone (1993)

Posted By: ArlegZ
Nicholas McGegan, Freiburger Barockorchester - George Frideric Handel: Ottone (1993)

Nicholas McGegan, Freiburger Barockorchester - George Frideric Handel: Ottone (1993)
EAC | FLAC | Image (Cue & Log) ~ 950 Mb | Total time: 70:44+64:07+54:56 | Scans included
Classical | Label: Harmonia Mundi | # HMU 907073.75 | Recorded: 1992

With over 30 of Handel’s operas awaiting a first CD recording, it seems indecent luxury to find two splendid new recordings of Ottone, a work in the vanguard of the German Handel opera revival in the 1920s, but long since relegated to obscurity. Both benefit immensely by being based on stage performances, Nicholas McGegan’s from the Göttingen Handel Festival, of which he is artistic director, Robert King’s from a production that successfully toured the UK and Japan. Broadly speaking, McGegan’s reading is distinguished by a compelling sense of drama and a wonderful feeling for Handelian style, sometimes at the expense of tonal beauty; King’s is smoother, occasionally letting the dramatic impetus flag, but offering playing of consistent strength and fine shading. McGegan, however, fields the marginally more convincing team of singers, led by Drew Minter, whose pure bright tone, breathtaking coloratura and ardent delivery give pleasure at every hearing; Bowman, for King, sings with sensitivity but his mannered tone and technical limitations are serious drawbacks. Conversely, Dominique Visse, for King, with his inimitable reedy timbre and impeccable musicianship, is matchless as Ottone’s rival in kingship, Adelberto, fine as Ralf Popken is for McGegan. Of the female roles, Claron McFadden produces a stream of radiant tone as Teofane; but so does Lisa Saffer, who, in addition, offers a wider range of colour. Both sets are recommendable, but Minter’s charismatic performance, Saffer’s deeper perceptions and the inclusion of arias Handel wrote for later revivals tip the balance in favour of McGegan. Whatever your choice, it’s an opera not to be missed.
–Antony Bye

Performer:
Ottone - Drew Minter, countertenor
Teofane - Lisa Saffer, soprano
Emireno - Michael Dean, bass-baritone
Gismonda - Juliana Gondek, soprano
Adelberto - Ralf Popken, countertenor
Matilda - Patricia Spence, mezzo-soprano
Freiburger Barockorchester
Conductor - Nicholas McGegan

Track List:
CD1:
01. Overture: [Lentement - Allegro]
02. Overture: Gavotte
03. Atto I. Cavatina: Pur che regni (Gismonda)
04. Recitativo: Chi più lieto è di me? (Adelberto, Gismonda)
05. Aria: La speranza è giunta in porto (Gismonda)
06. Recitativo: Vien di Romano inclita figlia (Adelberto, Teofane)
07. Aria: Bel labbro formato (Adelberto)
08. Recitativo: È tale Otton? (Teofane)
09. Aria: Falsa immagine (Teofane)
10. Concerto
11. Recitativo: Te, che assalir le nostre navi osasti (Ottone, Emireno)
12. Aria: Del minacciar del vento (Emireno)
13. Recitativo: Tutto a più liete cure (Ottone, Matilda)
14. Aria: Ritorna, o dolce amore (Ottone)
15. Recitativo: Anch'io sperai (Matilda)
16. Aria: Diresti poi così? (Matilda)
17. Recitativo: Tu la madre d'Otton? (Teofane, Gismonda)
18. Aria: Pensa ad amare (Gismonda)
19. Recitativo: Adelaide, di cui con tanta lode; Indietro, indietro (Adelberto, Teofane, Gismonda)
20. Recitativo: Giunge Otton? (Teofane)
21. Aria: Affanni del pensier (Teofane)
22. Sinfonia
23. Recitativo: Cedi il ferro, o la vita (Adelberto, Ottone)
24. Aria: Tu puoi straziarmi (Adelberto)
25. Recitativo: È di più mio rival? (Ottone)
26. Aria: Dell'onda ai fieri moti (Ottone)
CD2:
01. Atto II. Sinfonia
02. Recitativo: Per breve spazio a me colui (Adelberto, Matilda, Gismonda)
03. Aria: Lascia, che nel suo viso (Adelberto)
04. Recitativo: Ah! che più non resisto (Gismonda, Matilda)
05. Aria: Ah! tu non sai (Matilda)
06. Recitativo: Ah, Matilda, Matilda (Gismonda)
07. Aria: Vieni, o figlio, e mi consola (Gismonda)
08. Aria: Spera sì, mi dice il core (Teofane)
09. Recitativo: (Quegli, è certo il mio sposo) (Matilda, Ottone, Teofane)
10. Aria: All'orror d'un duolo eterno (Matilda)
11. Recitativo: O illustre Teofane (Ottone, Teofane)
12. Aria: Alla fama, dimmi il vero (Teofane)
13. Recitativo: Con gelosi sospetti (Ottone)
14. Aria: Dopo l'orrore (Ottone)
15. Accompagnato: O grati orrori (Teofane)
16. Aria: S'io dir potessi (Teofane)
17. Recitativo: Del gran sasso (Adelberto, Emireno)
18. Aria: Le profonde vie dell'onde (Emireno)
19. Recitativo: (Odo gente) (Adelberto, Matilda, Teofane, Ottone)
20. Aria: Deh! Non dir, che molle amante (Ottone)
21. Recitativo: Già d'ogni interno (Teofane, Emireno, Adelberto)
22. Recitativo: Odo il suono (Matilda, Gismonda)
23. Duetto: Notte cara, a te si deve (Gismonda, Matilda)
CD3:
01. Atto III. Aria: Dove sei, dolce mia vita (Ottone)
02. Recitativo: Già t'invola (Gismonda, Ottone)
03. Aria: Trema, tiranno (Gismonda)
04. Accompagnato: Io son tradito (Ottone)
05. Aria: Tanti affanni (Ottone)
06. Sinfonia
07. Recitativo: Empi, al vostro attentato (Adelberto, Teofane, Emireno)
08. Aria: D'innalzar i flutti (Adelberto)
09. Recitativo: Perchè in vita tornai? (Emireno, Adelberto, Teofane)
10. Recitativo: Si, mi traete alme (Teofane)
11. Aria: Benchè mi sia crudele (Teofane)
12. Recitativo: Deh! ti trattiene (Emireno, Teofane)
13. Aria: No, non temere, o bella (Emireno)
14. Recitativo: Pur cangiasti alla fin (Teofane)
15. Aria: Gode l'alma consolata (Teofane)
16. Recitativo: Uno de' servi miei (Matilda, Ottone, Gismonda)
17. Aria: Nel suo sangue (Matilda)
18. Recitativo: Matilda, arresta il piede (Emireno, Adelberto, Gismonda, Matilda, Ottone)
19. Recitativo: Frena, crudel (Teofane, Ottone)
20. Duetto: A' teneri affetti (Teofane, Ottone)
21. Recitativo: Ma qual caso (Ottone, Teofane, Emireno, Gismonda, Matilda, Adelberto)
22. Coro: Faccia ritorno l'antica pace (Tutti)


Exact Audio Copy V1.6 from 23. October 2020

EAC extraction logfile from 17. January 2022, 21:37

Nicholas McGegan, Freiburger Barockorchester / Handel - Ottone CD1

Used drive : PIONEER DVD-RW DVR-218L Adapter: 1 ID: 0

Read mode : Secure
Utilize accurate stream : Yes
Defeat audio cache : Yes
Make use of C2 pointers : No

Read offset correction : 6
Overread into Lead-In and Lead-Out : No
Fill up missing offset samples with silence : Yes
Delete leading and trailing silent blocks : No
Null samples used in CRC calculations : Yes
Used interface : Native Win32 interface for Win NT & 2000

Used output format : User Defined Encoder
Selected bitrate : 128 kBit/s
Quality : High
Add ID3 tag : No
Command line compressor : C:\Program Files\Exact Audio Copy\Flac\flac.exe
Additional command line options : -V -8 -T "Date=%year%" -T "Genre=%genre%" %source%


TOC of the extracted CD

Track | Start | Length | Start sector | End sector
––––––––––––––––––––––––––––-
1 | 0:00.00 | 3:25.37 | 0 | 15411
2 | 3:25.37 | 1:43.15 | 15412 | 23151
3 | 5:08.52 | 3:25.40 | 23152 | 38566
4 | 8:34.17 | 2:03.70 | 38567 | 47861
5 | 10:38.12 | 3:19.00 | 47862 | 62786
6 | 13:57.12 | 1:28.10 | 62787 | 69396
7 | 15:25.22 | 3:24.40 | 69397 | 84736
8 | 18:49.62 | 1:08.40 | 84737 | 89876
9 | 19:58.27 | 6:03.10 | 89877 | 117111
10 | 26:01.37 | 2:34.73 | 117112 | 128734
11 | 28:36.35 | 1:42.52 | 128735 | 136436
12 | 30:19.12 | 4:27.50 | 136437 | 156511
13 | 34:46.62 | 2:35.25 | 156512 | 168161
14 | 37:22.12 | 4:43.20 | 168162 | 189406
15 | 42:05.32 | 0:31.13 | 189407 | 191744
16 | 42:36.45 | 5:10.52 | 191745 | 215046
17 | 47:47.22 | 2:00.20 | 215047 | 224066
18 | 49:47.42 | 3:36.15 | 224067 | 240281
19 | 53:23.57 | 1:51.53 | 240282 | 248659
20 | 55:15.35 | 0:39.60 | 248660 | 251644
21 | 55:55.20 | 7:17.55 | 251645 | 284474
22 | 63:13.00 | 0:10.65 | 284475 | 285289
23 | 63:23.65 | 0:44.22 | 285290 | 288611
24 | 64:08.12 | 2:21.05 | 288612 | 299191
25 | 66:29.17 | 0:48.53 | 299192 | 302844
26 | 67:17.70 | 3:25.72 | 302845 | 318291


Range status and errors

Selected range

Filename D:\ArlegZ\Handel - Ottone - Nicholas McGegan CD1.wav

Peak level 94.6 %
Extraction speed 2.1 X
Range quality 100.0 %
Test CRC BE138FE6
Copy CRC BE138FE6
Copy OK

No errors occurred


AccurateRip summary

Track 1 accurately ripped (confidence 7) [5746BFF2] (AR v2)
Track 2 accurately ripped (confidence 7) [CF478AD4] (AR v2)
Track 3 accurately ripped (confidence 7) [669B31BA] (AR v2)
Track 4 accurately ripped (confidence 7) [C83DB51D] (AR v2)
Track 5 accurately ripped (confidence 7) [9CB88B52] (AR v2)
Track 6 accurately ripped (confidence 7) [3F186091] (AR v2)
Track 7 accurately ripped (confidence 7) [7D28889C] (AR v2)
Track 8 accurately ripped (confidence 7) [3C9BA458] (AR v2)
Track 9 accurately ripped (confidence 7) [F7A5833C] (AR v2)
Track 10 accurately ripped (confidence 7) [5C2A2B59] (AR v2)
Track 11 accurately ripped (confidence 7) [35855934] (AR v2)
Track 12 accurately ripped (confidence 7) [D761ECF1] (AR v2)
Track 13 accurately ripped (confidence 7) [3B479753] (AR v2)
Track 14 accurately ripped (confidence 7) [34E23119] (AR v2)
Track 15 accurately ripped (confidence 7) [2EC9A417] (AR v2)
Track 16 accurately ripped (confidence 7) [5204FEB6] (AR v2)
Track 17 accurately ripped (confidence 7) [E52E8178] (AR v2)
Track 18 accurately ripped (confidence 7) [0256B6B2] (AR v2)
Track 19 accurately ripped (confidence 7) [366040A2] (AR v2)
Track 20 accurately ripped (confidence 7) [8185D93D] (AR v2)
Track 21 accurately ripped (confidence 7) [0F43C232] (AR v2)
Track 22 accurately ripped (confidence 7) [33770EA0] (AR v2)
Track 23 accurately ripped (confidence 7) [A5D607BD] (AR v2)
Track 24 accurately ripped (confidence 7) [34EBFC2A] (AR v2)
Track 25 accurately ripped (confidence 7) [DB7213BD] (AR v2)
Track 26 accurately ripped (confidence 7) [61950DB7] (AR v2)

All tracks accurately ripped

End of status report

–– CUETools DB Plugin V2.1.6

[CTDB TOCID: Mmi.DpxYiW7z0Q8NiIT7QORH6F4-] found
Submit result: Mmi.DpxYiW7z0Q8NiIT7QORH6F4- has been confirmed
Track | CTDB Status
1 | (29/29) Accurately ripped
2 | (29/29) Accurately ripped
3 | (29/29) Accurately ripped
4 | (28/29) Accurately ripped
5 | (28/29) Accurately ripped
6 | (29/29) Accurately ripped
7 | (29/29) Accurately ripped
8 | (29/29) Accurately ripped
9 | (29/29) Accurately ripped
10 | (29/29) Accurately ripped
11 | (29/29) Accurately ripped
12 | (29/29) Accurately ripped
13 | (29/29) Accurately ripped
14 | (28/29) Accurately ripped
15 | (29/29) Accurately ripped
16 | (29/29) Accurately ripped
17 | (29/29) Accurately ripped
18 | (29/29) Accurately ripped
19 | (29/29) Accurately ripped
20 | (29/29) Accurately ripped
21 | (29/29) Accurately ripped
22 | (29/29) Accurately ripped
23 | (29/29) Accurately ripped
24 | (28/29) Accurately ripped
25 | (29/29) Accurately ripped
26 | (29/29) Accurately ripped


==== Log checksum B9DDDDD4FDFEAEBA545A78B698B608103F3B13A9390F3CC912687BD30B19DB98 ====


Exact Audio Copy V1.6 from 23. October 2020

EAC extraction logfile from 17. January 2022, 22:43

Nicholas McGegan, Freiburger Barockorchester / Handel - Ottone CD2

Used drive : PIONEER DVD-RW DVR-218L Adapter: 1 ID: 0

Read mode : Secure
Utilize accurate stream : Yes
Defeat audio cache : Yes
Make use of C2 pointers : No

Read offset correction : 6
Overread into Lead-In and Lead-Out : No
Fill up missing offset samples with silence : Yes
Delete leading and trailing silent blocks : No
Null samples used in CRC calculations : Yes
Used interface : Native Win32 interface for Win NT & 2000

Used output format : User Defined Encoder
Selected bitrate : 128 kBit/s
Quality : High
Add ID3 tag : No
Command line compressor : C:\Program Files\Exact Audio Copy\Flac\flac.exe
Additional command line options : -V -8 -T "Date=%year%" -T "Genre=%genre%" %source%


TOC of the extracted CD

Track | Start | Length | Start sector | End sector
––––––––––––––––––––––––––––-
1 | 0:00.00 | 0:25.50 | 0 | 1924
2 | 0:25.50 | 1:34.12 | 1925 | 8986
3 | 1:59.62 | 3:03.40 | 8987 | 22751
4 | 5:03.27 | 1:42.38 | 22752 | 30439
5 | 6:45.65 | 3:43.55 | 30440 | 47219
6 | 10:29.45 | 0:29.20 | 47220 | 49414
7 | 10:58.65 | 6:52.50 | 49415 | 80364
8 | 17:51.40 | 5:13.50 | 80365 | 103889
9 | 23:05.15 | 2:31.50 | 103890 | 115264
10 | 25:36.65 | 3:06.17 | 115265 | 129231
11 | 28:43.07 | 1:18.20 | 129232 | 135101
12 | 30:01.27 | 3:43.58 | 135102 | 151884
13 | 33:45.10 | 0:26.05 | 151885 | 153839
14 | 34:11.15 | 4:44.35 | 153840 | 175174
15 | 38:55.50 | 2:30.72 | 175175 | 186496
16 | 41:26.47 | 5:15.18 | 186497 | 210139
17 | 46:41.65 | 1:10.47 | 210140 | 215436
18 | 47:52.37 | 2:28.70 | 215437 | 226606
19 | 50:21.32 | 2:02.28 | 226607 | 235784
20 | 52:23.60 | 3:36.67 | 235785 | 252051
21 | 56:00.52 | 0:54.23 | 252052 | 256124
22 | 56:55.00 | 0:56.15 | 256125 | 260339
23 | 57:51.15 | 6:16.15 | 260340 | 288554


Range status and errors

Selected range

Filename D:\ArlegZ\Handel - Ottone - Nicholas McGegan CD2.wav

Peak level 97.7 %
Extraction speed 2.0 X
Range quality 100.0 %
Test CRC 5D3048FC
Copy CRC 5D3048FC
Copy OK

No errors occurred


AccurateRip summary

Track 1 accurately ripped (confidence 7) [F99BFB0B] (AR v2)
Track 2 accurately ripped (confidence 7) [F8C7A82F] (AR v2)
Track 3 accurately ripped (confidence 7) [2B65C622] (AR v2)
Track 4 accurately ripped (confidence 7) [DC6DC88F] (AR v2)
Track 5 accurately ripped (confidence 7) [F3BD2248] (AR v2)
Track 6 accurately ripped (confidence 7) [A80E86B5] (AR v2)
Track 7 accurately ripped (confidence 7) [4A3EF360] (AR v2)
Track 8 accurately ripped (confidence 7) [43B5CF35] (AR v2)
Track 9 accurately ripped (confidence 7) [31614F21] (AR v2)
Track 10 accurately ripped (confidence 7) [A1C61571] (AR v2)
Track 11 accurately ripped (confidence 7) [C0F67C55] (AR v2)
Track 12 accurately ripped (confidence 7) [6A6846AA] (AR v2)
Track 13 accurately ripped (confidence 7) [76A13BF2] (AR v2)
Track 14 accurately ripped (confidence 7) [52EF8B73] (AR v2)
Track 15 accurately ripped (confidence 7) [D2517981] (AR v2)
Track 16 accurately ripped (confidence 7) [DBDD3A46] (AR v2)
Track 17 accurately ripped (confidence 7) [FAB8A28E] (AR v2)
Track 18 accurately ripped (confidence 7) [CF461EAB] (AR v2)
Track 19 accurately ripped (confidence 7) [C23521E9] (AR v2)
Track 20 accurately ripped (confidence 7) [51604A75] (AR v2)
Track 21 accurately ripped (confidence 7) [2AD52C1F] (AR v2)
Track 22 accurately ripped (confidence 7) [B38A4A07] (AR v2)
Track 23 accurately ripped (confidence 7) [81138FDE] (AR v2)

All tracks accurately ripped

End of status report

–– CUETools DB Plugin V2.1.6

[CTDB TOCID: EqS7Qg.fLQWKZrEEAH.Nfq3xoH0-] found
Submit result: EqS7Qg.fLQWKZrEEAH.Nfq3xoH0- has been confirmed
Track | CTDB Status
1 | (29/29) Accurately ripped
2 | (29/29) Accurately ripped
3 | (29/29) Accurately ripped
4 | (29/29) Accurately ripped
5 | (28/29) Accurately ripped
6 | (29/29) Accurately ripped
7 | (29/29) Accurately ripped
8 | (29/29) Accurately ripped
9 | (29/29) Accurately ripped
10 | (29/29) Accurately ripped
11 | (29/29) Accurately ripped
12 | (29/29) Accurately ripped
13 | (29/29) Accurately ripped
14 | (29/29) Accurately ripped
15 | (29/29) Accurately ripped
16 | (29/29) Accurately ripped
17 | (29/29) Accurately ripped
18 | (28/29) Accurately ripped
19 | (29/29) Accurately ripped
20 | (29/29) Accurately ripped
21 | (29/29) Accurately ripped
22 | (29/29) Accurately ripped
23 | (29/29) Accurately ripped


==== Log checksum 9BC5CDE7692C3E55E539A3E9FB17371D7475064290B99AE250016F12BA3EA5B9 ====


Exact Audio Copy V1.6 from 23. October 2020

EAC extraction logfile from 17. January 2022, 23:46

Nicholas McGegan, Freiburger Barockorchester / Handel - Ottone CD3

Used drive : PIONEER DVD-RW DVR-218L Adapter: 1 ID: 0

Read mode : Secure
Utilize accurate stream : Yes
Defeat audio cache : Yes
Make use of C2 pointers : No

Read offset correction : 6
Overread into Lead-In and Lead-Out : No
Fill up missing offset samples with silence : Yes
Delete leading and trailing silent blocks : No
Null samples used in CRC calculations : Yes
Used interface : Native Win32 interface for Win NT & 2000

Used output format : User Defined Encoder
Selected bitrate : 128 kBit/s
Quality : High
Add ID3 tag : No
Command line compressor : C:\Program Files\Exact Audio Copy\Flac\flac.exe
Additional command line options : -V -8 -T "Date=%year%" -T "Genre=%genre%" %source%


TOC of the extracted CD

Track | Start | Length | Start sector | End sector
––––––––––––––––––––––––––––-
1 | 0:00.00 | 4:40.18 | 0 | 21017
2 | 4:40.18 | 1:45.55 | 21018 | 28947
3 | 6:25.73 | 3:10.35 | 28948 | 43232
4 | 9:36.33 | 1:51.42 | 43233 | 51599
5 | 11:28.00 | 6:32.40 | 51600 | 81039
6 | 18:00.40 | 0:23.70 | 81040 | 82834
7 | 18:24.35 | 0:45.10 | 82835 | 86219
8 | 19:09.45 | 3:27.38 | 86220 | 101782
9 | 22:37.08 | 2:03.05 | 101783 | 111012
10 | 24:40.13 | 0:35.55 | 111013 | 113692
11 | 25:15.68 | 4:09.60 | 113693 | 132427
12 | 29:25.53 | 1:45.27 | 132428 | 140329
13 | 31:11.05 | 3:38.33 | 140330 | 156712
14 | 34:49.38 | 0:25.67 | 156713 | 158654
15 | 35:15.30 | 5:17.08 | 158655 | 182437
16 | 40:32.38 | 1:29.22 | 182438 | 189134
17 | 42:01.60 | 2:45.05 | 189135 | 201514
18 | 44:46.65 | 2:01.10 | 201515 | 210599
19 | 46:48.00 | 0:40.73 | 210600 | 213672
20 | 47:28.73 | 4:27.45 | 213673 | 233742
21 | 51:56.43 | 1:24.15 | 233743 | 240057
22 | 53:20.58 | 1:36.30 | 240058 | 247287


Range status and errors

Selected range

Filename D:\ArlegZ\Handel - Ottone - Nicholas McGegan CD3.wav

Peak level 95.3 %
Extraction speed 1.8 X
Range quality 100.0 %
Test CRC A14607C3
Copy CRC A14607C3
Copy OK

No errors occurred


AccurateRip summary

Track 1 accurately ripped (confidence 7) [705E1A77] (AR v2)
Track 2 accurately ripped (confidence 7) [55008C82] (AR v2)
Track 3 accurately ripped (confidence 7) [10FFF18C] (AR v2)
Track 4 accurately ripped (confidence 7) [204368A6] (AR v2)
Track 5 accurately ripped (confidence 7) [327A8162] (AR v2)
Track 6 accurately ripped (confidence 7) [870903F8] (AR v2)
Track 7 accurately ripped (confidence 7) [C64E8653] (AR v2)
Track 8 accurately ripped (confidence 7) [24180549] (AR v2)
Track 9 accurately ripped (confidence 7) [2D437E49] (AR v2)
Track 10 accurately ripped (confidence 7) [8FFCF67C] (AR v2)
Track 11 accurately ripped (confidence 7) [F8601E78] (AR v2)
Track 12 accurately ripped (confidence 7) [FC892ACF] (AR v2)
Track 13 accurately ripped (confidence 7) [72612F0F] (AR v2)
Track 14 accurately ripped (confidence 7) [0CD26B52] (AR v2)
Track 15 accurately ripped (confidence 7) [C3F64260] (AR v2)
Track 16 accurately ripped (confidence 7) [8FCE1AD3] (AR v2)
Track 17 accurately ripped (confidence 7) [19C29A6A] (AR v2)
Track 18 accurately ripped (confidence 7) [560EB72A] (AR v2)
Track 19 accurately ripped (confidence 7) [B1BDAA63] (AR v2)
Track 20 accurately ripped (confidence 7) [4E978BEB] (AR v2)
Track 21 accurately ripped (confidence 7) [769192D2] (AR v2)
Track 22 accurately ripped (confidence 7) [6505D330] (AR v2)

All tracks accurately ripped

End of status report

–– CUETools DB Plugin V2.1.6

[CTDB TOCID: HY7eyF7INBfLDBPA0owhxE2E.M8-] found
Submit result: HY7eyF7INBfLDBPA0owhxE2E.M8- has been confirmed
Track | CTDB Status
1 | (29/29) Accurately ripped
2 | (29/29) Accurately ripped
3 | (29/29) Accurately ripped
4 | (29/29) Accurately ripped
5 | (29/29) Accurately ripped
6 | (29/29) Accurately ripped
7 | (29/29) Accurately ripped
8 | (29/29) Accurately ripped
9 | (29/29) Accurately ripped
10 | (29/29) Accurately ripped
11 | (29/29) Accurately ripped
12 | (29/29) Accurately ripped
13 | (29/29) Accurately ripped
14 | (29/29) Accurately ripped
15 | (28/29) Accurately ripped
16 | (29/29) Accurately ripped
17 | (29/29) Accurately ripped
18 | (29/29) Accurately ripped
19 | (29/29) Accurately ripped
20 | (29/29) Accurately ripped
21 | (29/29) Accurately ripped
22 | (28/29) Accurately ripped


==== Log checksum 9421065D2CB481F0E6EB29DD8359A518AB7356DAF4BA279647017A1BB4DFEA8E ====

Nicholas McGegan, Freiburger Barockorchester - George Frideric Handel: Ottone (1993)