Tags
Language
Tags

Nicola Benedetti, Benedetti Baroque Orchestra - Baroque: Geminiani, Vivaldi (2021)

Posted By: ArlegZ
Nicola Benedetti, Benedetti Baroque Orchestra - Baroque: Geminiani, Vivaldi (2021)

Nicola Benedetti, Benedetti Baroque Orchestra - Baroque: Geminiani, Vivaldi (2021)
EAC | FLAC | Image (Cue & Log) ~ 278 Mb | Total time: 52:26 | Scans included
Classical | Label: Decca | # 4851891 | Recorded: 2020

Decca Classics is thrilled to announce a new Baroque album from Grammy award-winning violinist Nicola Benedetti. This is the first album Benedetti has released on a period set-up including gut strings, and she is joined by a leading group of freelance baroque musicians, forming the Benedetti Baroque Orchestra for the very first time. The album features a selection of concerti by Vivaldi plus Geminiani’s incredible arrangement of Corelli’s ‘La Folia’, one of the oldest western classical themes which has been arranged by many composers over time, particularly in the baroque era. Geminiani was one of the greatest violinists of the era and Corelli was one of his teachers whilst growing up in Italy. Later when he moved to London, Geminiani reworked a number of Corelli’s works for local audiences including this arrangement of ‘La Folia’.

Performer:
Nicola Benedetti, violin
Benedetti Baroque Orchestra

Track List:
Francesco Geminiani (1687-1762)
01. Concerto grosso in D minor H143 "La Folia" after Arcangelo Corelli's Violin Sonata Op.5 No.12
Antonio Vivaldi (1678-1741)
Violin Concerto, RV 211 in D major
02. I. Allegro non molto
03. II. Larghetto
04. III. Allegro
Violin Concerto RV257 in E flat major
05. I. Andante molto e quasi allegro
06. II. Adagio
07. III. Allegro
Concerto in B minor for Violin RV386
08. I. Allegro ma poco
09. II. Larghetto
10. III. Allegro
11. Concerto in B flat major, RV 583: II. Andante


Exact Audio Copy V1.6 from 23. October 2020

EAC extraction logfile from 27. November 2021, 16:18

Nicola Benedetti / Baroque

Used drive : PIONEER BD-RW BDR-209D Adapter: 1 ID: 0

Read mode : Secure
Utilize accurate stream : Yes
Defeat audio cache : Yes
Make use of C2 pointers : No

Read offset correction : 667
Overread into Lead-In and Lead-Out : No
Fill up missing offset samples with silence : Yes
Delete leading and trailing silent blocks : No
Null samples used in CRC calculations : Yes
Used interface : Native Win32 interface for Win NT & 2000

Used output format : User Defined Encoder
Selected bitrate : 1024 kBit/s
Quality : High
Add ID3 tag : No
Command line compressor : C:\Program Files (x86)\Exact Audio Copy\FLAC\FLAC.EXE
Additional command line options : -6 -V -T "ARTIST=%artist%" -T "TITLE=%title%" -T "ALBUM=%albumtitle%" -T "DATE=%year%" -T "TRACKNUMBER=%tracknr%" -T "GENRE=%genre%" -T "COMMENT=%comment%" -T "BAND=%albuminterpret%" -T "ALBUMARTIST=%albuminterpret%" -T "COMPOSER=%composer%" %haslyrics%–tag-from-file=LYRICS="%lyricsfile%"%haslyrics% -T "DISCNUMBER=%cdnumber%" -T "TOTALDISCS=%totalcds%" -T "TOTALTRACKS=%numtracks%" %hascover%–picture="%coverfile%"%hascover% %source% -o %dest%


TOC of the extracted CD

Track | Start | Length | Start sector | End sector
––––––––––––––––––––––––––––-
1 | 0:00.00 | 11:28.50 | 0 | 51649
2 | 11:28.50 | 5:35.43 | 51650 | 76817
3 | 17:04.18 | 3:45.64 | 76818 | 93756
4 | 20:50.07 | 4:49.66 | 93757 | 115497
5 | 25:39.73 | 4:49.39 | 115498 | 137211
6 | 30:29.37 | 2:55.58 | 137212 | 150394
7 | 33:25.20 | 3:10.12 | 150395 | 164656
8 | 36:35.32 | 4:45.38 | 164657 | 186069
9 | 41:20.70 | 3:46.41 | 186070 | 203060
10 | 45:07.36 | 3:21.37 | 203061 | 218172
11 | 48:28.73 | 3:55.04 | 218173 | 235801


Range status and errors

Selected range

Filename V:\Videos\LittleGrecy.Baroque.Nicola.Benedetti[No.Artwork]\Nicola Benedetti - Baroque.wav

Peak level 96.5 %
Extraction speed 7.3 X
Range quality 99.9 %
Test CRC 69926539
Copy CRC 69926539
Copy OK

No errors occurred


AccurateRip summary

Track 1 accurately ripped (confidence 3) [5084D8FC] (AR v2)
Track 2 accurately ripped (confidence 3) [97DBB809] (AR v2)
Track 3 accurately ripped (confidence 3) [D8ADC0A6] (AR v2)
Track 4 accurately ripped (confidence 3) [8799A18A] (AR v2)
Track 5 accurately ripped (confidence 3) [DBFEEED9] (AR v2)
Track 6 accurately ripped (confidence 3) [54982BB6] (AR v2)
Track 7 accurately ripped (confidence 3) [5E08188A] (AR v2)
Track 8 accurately ripped (confidence 3) [E94A3BC1] (AR v2)
Track 9 accurately ripped (confidence 3) [AEB6389A] (AR v2)
Track 10 accurately ripped (confidence 3) [D7C0788E] (AR v2)
Track 11 accurately ripped (confidence 3) [0E5F779A] (AR v2)

All tracks accurately ripped

End of status report

–– CUETools DB Plugin V2.1.6

[CTDB TOCID: NaLDo9PdRca.FO133cV3JcAI9Zo-] found
Submit result: NaLDo9PdRca.FO133cV3JcAI9Zo- has been confirmed
Track | CTDB Status
1 | (10/17) Accurately ripped
2 | (10/17) Accurately ripped
3 | (10/17) Accurately ripped
4 | (10/17) Accurately ripped
5 | (10/17) Accurately ripped
6 | (10/17) Accurately ripped
7 | (10/17) Accurately ripped
8 | (10/17) Accurately ripped
9 | (10/17) Accurately ripped
10 | (10/17) Accurately ripped
11 | (10/17) Accurately ripped

Nicola Benedetti, Benedetti Baroque Orchestra - Baroque: Geminiani, Vivaldi (2021)

Thanks to the original releaser