Tags
Language
Tags

Nicolas Dary Quartet - U Babbu (2014) {Gaya}

Posted By: tiburon
Nicolas Dary Quartet - U Babbu (2014) {Gaya}

Nicolas Dary Quartet - U Babbu (2014) {Gaya}
EAC 1.0b3 | FLAC tracks level 8 | Cue+Log+M3U | Full Scans 600dpi | 234MB + 5% Recovery
MP3 CBR 320 Kbps | 98MB + 5% Recovery
Genre: Jazz, Post-Bop

Cette nouvelle formation en quartet offre à Nicolas plus de liberté d’improvisations, détail qui a son importance lorsque l’on travaille avec un artiste comme Joe, personnage fantasque, virtuose et imprévisible. La musique oscille entre swing, bop et modal. Les influences se promènent entre Dexter Gordon et Sonny Rollins pour le ténor et Charlie Parker et Jackie Mc Lean pour l’alto.
Track List
01. U babbu
02. Only fellows
03. Pasteis de nata
04. They got rhythm
05. Capolinea
06. I don't want to be unhappy
07. Blues for Stan
08. ZI 307
09. Tell me now
10. Nocturne pour une baleine

musicians
Nicolas Dary - tenor sax, alto sax, flute
Joe Cohn - guitar
Mathias Allamane - double bass
Stan Laferrière - drums


Exact Audio Copy V1.0 beta 3 from 29. August 2011

EAC extraction logfile from 10. April 2014, 14:16

Nicolas Dary / U Babbu

Used drive : PHILIPS SPD3400CC Adapter: 3 ID: 0

Read mode : Secure
Utilize accurate stream : Yes
Defeat audio cache : Yes
Make use of C2 pointers : No

Read offset correction : 6
Overread into Lead-In and Lead-Out : No
Fill up missing offset samples with silence : Yes
Delete leading and trailing silent blocks : No
Null samples used in CRC calculations : Yes
Used interface : Installed external ASPI interface
Gap handling : Appended to previous track

Used output format : User Defined Encoder
Selected bitrate : 1024 kBit/s
Quality : High
Add ID3 tag : No
Command line compressor : C:\Program Files (x86)\Exact Audio Copy\FLAC\FLAC.EXE
Additional command line options : -8 -V -T "ARTIST=%artist%" -T "TITLE=%title%" -T "ALBUM=%albumtitle%" -T "DATE=%year%" -T "TRACKNUMBER=%tracknr%" -T "TOTALTRACKS=%numtracks%" -T "GENRE=%genre%" -T "ALBUM ARTIST=%albumartist%" -T "ALBUMARTIST=%albumartist%" -T "COMMENT=EAC V1.0 beta 3, Secure Mode, Test & Copy, AccurateRip, FLAC -8" %source%


TOC of the extracted CD

Track | Start | Length | Start sector | End sector
––––––––––––––––––––––––––––-
1 | 0:00.00 | 5:50.09 | 0 | 26258
2 | 5:50.09 | 2:56.59 | 26259 | 39517
3 | 8:46.68 | 4:32.58 | 39518 | 59975
4 | 13:19.51 | 2:14.54 | 59976 | 70079
5 | 15:34.30 | 3:55.20 | 70080 | 87724
6 | 19:29.50 | 3:35.55 | 87725 | 103904
7 | 23:05.30 | 4:34.62 | 103905 | 124516
8 | 27:40.17 | 3:11.47 | 124517 | 138888
9 | 30:51.64 | 4:50.13 | 138889 | 160651
10 | 35:42.02 | 1:35.00 | 160652 | 167776


Track 1

Filename C:\Rips\01 U Babbu.wav

Pre-gap length 0:00:02.00

Peak level 91.9 %
Extraction speed 1.9 X
Track quality 100.0 %
Test CRC B8103045
Copy CRC B8103045
Track not present in AccurateRip database
Copy OK

Track 2

Filename C:\Rips\02 Only Fellows.wav

Pre-gap length 0:00:02.00

Peak level 84.6 %
Extraction speed 1.9 X
Track quality 100.0 %
Test CRC 027EF85C
Copy CRC 027EF85C
Track not present in AccurateRip database
Copy OK

Track 3

Filename C:\Rips\03 Pastels de Nata.wav

Pre-gap length 0:00:01.00

Peak level 75.9 %
Extraction speed 2.2 X
Track quality 100.0 %
Test CRC FA400086
Copy CRC FA400086
Track not present in AccurateRip database
Copy OK

Track 4

Filename C:\Rips\04 They Got Rhythm.wav

Pre-gap length 0:00:02.00

Peak level 87.9 %
Extraction speed 2.1 X
Track quality 100.0 %
Test CRC 47CDE5C1
Copy CRC 47CDE5C1
Track not present in AccurateRip database
Copy OK

Track 5

Filename C:\Rips\05 Capolinea.wav

Pre-gap length 0:00:02.30

Peak level 60.8 %
Extraction speed 2.4 X
Track quality 100.0 %
Test CRC 0DBA418F
Copy CRC 0DBA418F
Track not present in AccurateRip database
Copy OK

Track 6

Filename C:\Rips\06 I Don't Want to be Unhappy.wav

Pre-gap length 0:00:02.00

Peak level 82.9 %
Extraction speed 2.6 X
Track quality 100.0 %
Test CRC 7F988564
Copy CRC 7F988564
Track not present in AccurateRip database
Copy OK

Track 7

Filename C:\Rips\07 Blues For Stan.wav

Pre-gap length 0:00:02.00

Peak level 77.4 %
Extraction speed 2.8 X
Track quality 100.0 %
Test CRC 22135AB6
Copy CRC 22135AB6
Track not present in AccurateRip database
Copy OK

Track 8

Filename C:\Rips\08 ZI 307.wav

Pre-gap length 0:00:02.00

Peak level 86.1 %
Extraction speed 2.8 X
Track quality 100.0 %
Test CRC 0DF49F16
Copy CRC 0DF49F16
Track not present in AccurateRip database
Copy OK

Track 9

Filename C:\Rips\09 Tell Me Now.wav

Pre-gap length 0:00:02.00

Peak level 83.1 %
Extraction speed 2.5 X
Track quality 99.9 %
Test CRC 59E01175
Copy CRC 59E01175
Track not present in AccurateRip database
Copy OK

Track 10

Filename C:\Rips\10 Nocturne Pour Une Baleine.wav

Pre-gap length 0:00:03.00

Peak level 62.3 %
Extraction speed 2.5 X
Track quality 100.0 %
Test CRC 99195FD1
Copy CRC 99195FD1
Track not present in AccurateRip database
Copy OK


None of the tracks are present in the AccurateRip database

No errors occurred

End of status report

==== Log checksum 5429CAA3209E42D1444271260B4088DECF4B82E24859C27A2B4C98EAA10F3855 ====


––––––––––––––––––––––––––––––––––––––––
Analyzed: Nicolas Dary / U Babbu
––––––––––––––––––––––––––––––––––––––––

DR Peak RMS Duration Track
––––––––––––––––––––––––––––––––––––––––
DR14 -0.73 dB -16.26 dB 5:50 01-U Babbu
DR13 -1.45 dB -16.34 dB 2:57 02-Only Fellows
DR14 -2.39 dB -18.60 dB 4:33 03-Pastels de Nata
DR14 -1.11 dB -16.86 dB 2:15 04-They Got Rhythm
DR14 -4.32 dB -20.21 dB 3:55 05-Capolinea
DR14 -1.62 dB -18.32 dB 3:36 06-I Don't Want to be Unhappy
DR13 -2.22 dB -17.14 dB 4:35 07-Blues For Stan
DR13 -1.30 dB -16.98 dB 3:12 08-ZI 307
DR14 -1.61 dB -17.83 dB 4:50 09-Tell Me Now
DR12 -4.10 dB -22.66 dB 1:35 10-Nocturne Pour Une Baleine
––––––––––––––––––––––––––––––––––––––––

Number of tracks: 10
Official DR value: DR13

Samplerate: 44100 Hz
Channels: 2
Bits per sample: 16
Bitrate: 529 kbps
Codec: FLAC
================================================================================

Nicolas Dary Quartet - U Babbu (2014) {Gaya}
Nicolas Dary Quartet - U Babbu (2014) {Gaya}
Nicolas Dary Quartet - U Babbu (2014) {Gaya}


Thanks to the original ripper