Tags
Language
Tags

Nightlands - I Can Feel the Night Around Me (2017)

Posted By:
Nightlands - I Can Feel the Night Around Me (2017)

Nightlands - I Can Feel the Night Around Me (2017)
EAC Rip | FLAC (Tracks) +cue, log - 245 MB | MP3 CBR 320 kbps - 98 MB | 00:41:05
Indie Rock | Label: Western Vinyl | Release Year: 2017

I Can Feel the Night Around Me, the third album from Philadelphia's Nightlands, showcases Dave Hartley's finely tuned ability to layer his voice and conjure some of the most beautiful and elaborate virtual choirs in modern music. If his first two records were vocal layering experiments, his third stands as Hartley's thesis statement: "I was determined to use vocal stacking to enable my songwriting, not shroud or obscure it." He recorded most of the album alone in a cold warehouse basement, which he affectionately calls The Space it's where The War on Drugs (of whom Hartley has been a core member for the past decade) formerly rehearsed and stored their equipment. "The dissonance between the sound of the album and the atmosphere in which it was recorded is pretty striking," Hartley says. Indeed the music seems more geographically inspired by the microclimates of the Lost Coast and the moonrises of Big Sur than the post-industrial cityscape of North Philadelphia. Perhaps his periodic westward sojourns and healthy obsessions with mid-career Beach Boys albums and Denis Johnson's Already Dead: A California Gothic were influencing him more than he was aware.

TRACKLIST

01.Lost Moon
02.Depending on You
03.Easy Does It
04.Only You Know
05.Love's in Love
06.Fear of Flying
07.You're Silver
08.Moonbathin
09.Human Hearts

Exact Audio Copy V1.3 from 2. September 2016

EAC extraction logfile from 21. April 2017, 16:08

Nightlands / I Can Feel The Night Around Me

Used drive : HP DVD Writer 1270t Adapter: 1 ID: 0

Read mode : Secure
Utilize accurate stream : Yes
Defeat audio cache : Yes
Make use of C2 pointers : No

Read offset correction : 6
Overread into Lead-In and Lead-Out : No
Fill up missing offset samples with silence : Yes
Delete leading and trailing silent blocks : No
Null samples used in CRC calculations : Yes
Used interface : Native Win32 interface for Win NT & 2000
Gap handling : Appended to previous track

Used output format : User Defined Encoder
Selected bitrate : 1024 kBit/s
Quality : High
Add ID3 tag : No
Command line compressor : C:\Program Files\FLAC\flac.exe
Additional command line options : -8 -V -T "Artist=%artist%" -T "Title=%title%" -T "Album=%albumtitle%" -T "Date=%year%" -T "TRACKNUMBER=%tracknr%" -T "Genre=%genre%" -T "Performer=%albuminterpret%" -T "Composer=%composer%" %haslyrics%–tag-from-file=LYRICS="%lyricsfile%"%haslyrics% -T "Album Artist=%albumartist%" -T "DISCNUMBER=%cdnumber%" -T "TOTALDISCS=%totalcds%" -T "TOTALTRACKS=%numtracks%" -T "Comment=%comment%" %source% -o %dest%


TOC of the extracted CD

Track | Start | Length | Start sector | End sector
––––––––––––––––––––––––––––-
1 | 0:00.00 | 3:55.24 | 0 | 17648
2 | 3:55.24 | 4:18.51 | 17649 | 37049
3 | 8:14.00 | 4:02.59 | 37050 | 55258
4 | 12:16.59 | 5:56.09 | 55259 | 81967
5 | 18:12.68 | 4:08.56 | 81968 | 100623
6 | 22:21.49 | 5:34.00 | 100624 | 125673
7 | 27:55.49 | 4:57.10 | 125674 | 147958
8 | 32:52.59 | 4:22.49 | 147959 | 167657
9 | 37:15.33 | 3:53.61 | 167658 | 185193


Track 1

Filename F:\Nightlands - I Can Feel The Night Around Me (2017) [FLAC]\01 Depending On You.wav

Pre-gap length 0:00:02.00

Peak level 95.8 %
Extraction speed 1.8 X
Track quality 100.0 %
Test CRC A4B27E7D
Copy CRC A4B27E7D
Track not present in AccurateRip database
Copy OK

Track 2

Filename F:\Nightlands - I Can Feel The Night Around Me (2017) [FLAC]\02 Easy Does It.wav

Peak level 95.2 %
Extraction speed 2.0 X
Track quality 100.0 %
Test CRC B693CC38
Copy CRC B693CC38
Track not present in AccurateRip database
Copy OK

Track 3

Filename F:\Nightlands - I Can Feel The Night Around Me (2017) [FLAC]\03 Human Hearts.wav

Peak level 96.1 %
Extraction speed 2.2 X
Track quality 100.0 %
Test CRC F2171ED6
Copy CRC F2171ED6
Track not present in AccurateRip database
Copy OK

Track 4

Filename F:\Nightlands - I Can Feel The Night Around Me (2017) [FLAC]\04 Lost Moon.wav

Peak level 95.1 %
Extraction speed 2.5 X
Track quality 100.0 %
Test CRC 2E5D0278
Copy CRC 2E5D0278
Track not present in AccurateRip database
Copy OK

Track 5

Filename F:\Nightlands - I Can Feel The Night Around Me (2017) [FLAC]\05 Love's In Love.wav

Peak level 95.1 %
Extraction speed 2.6 X
Track quality 100.0 %
Test CRC D07EB7E6
Copy CRC D07EB7E6
Track not present in AccurateRip database
Copy OK

Track 6

Filename F:\Nightlands - I Can Feel The Night Around Me (2017) [FLAC]\06 Moonbathin.wav

Peak level 95.7 %
Extraction speed 2.2 X
Track quality 99.9 %
Test CRC 605E719B
Copy CRC 605E719B
Track not present in AccurateRip database
Copy OK

Track 7

Filename F:\Nightlands - I Can Feel The Night Around Me (2017) [FLAC]\07 Fear Of Flying.wav

Peak level 95.8 %
Extraction speed 2.3 X
Track quality 99.9 %
Test CRC B6972E93
Copy CRC B6972E93
Track not present in AccurateRip database
Copy OK

Track 8

Filename F:\Nightlands - I Can Feel The Night Around Me (2017) [FLAC]\08 Only You Know.wav

Peak level 95.3 %
Extraction speed 3.1 X
Track quality 100.0 %
Test CRC AEAAFB05
Copy CRC AEAAFB05
Track not present in AccurateRip database
Copy OK

Track 9

Filename F:\Nightlands - I Can Feel The Night Around Me (2017) [FLAC]\09 You're Silver.wav

Peak level 95.9 %
Extraction speed 3.2 X
Track quality 100.0 %
Test CRC B5701D77
Copy CRC B5701D77
Track not present in AccurateRip database
Copy OK


None of the tracks are present in the AccurateRip database

No errors occurred

End of status report

–– CUETools DB Plugin V2.1.6

[CTDB TOCID: FZpgUAD3O6D2eim0wK1xGUlWYwg-] found
Submit result: already submitted
Track | CTDB Status
1 | (1/1) Accurately ripped
2 | (1/1) Accurately ripped
3 | (1/1) Accurately ripped
4 | (1/1) Accurately ripped
5 | (1/1) Accurately ripped
6 | (1/1) Accurately ripped
7 | (1/1) Accurately ripped
8 | (1/1) Accurately ripped
9 | (1/1) Accurately ripped


==== Log checksum 371B57E5F50DCE6E212E8C7B1ACD5B97573821E10B253D6DA8D3354A0034820F ====


All thanks go to the original releaser