Tags
Language
Tags

Nikolaus Harnoncourt - The Complete Sony Recordings, Part 10 [6CDs] (2016)

Posted By: ArlegZ
Nikolaus Harnoncourt - The Complete Sony Recordings, Part 10 [6CDs] (2016)

Nikolaus Harnoncourt - The Complete Sony Recordings, Part 10 (2016)
EAC | FLAC | Image (Cue & Log) ~ 1,19 Gb | Total time: 05:02:53 | Scans included
Classical | Label: Sony Classical | # 88875173752 | Recorded: 1991-2015

Nikolaus Harnoncourt The Complete Sony Recordings brings together for the first time Harnoncourt s complete recordings from 2002-2015 with his Concentus Musicus Wien, the Wiener Philharmonike, the Chamber Orchestra of Europe and the Symphonieorchester des Bayrischen Rundfunks. The Sony Classical edition features his famous symphony recordings of Mozart, Haydn, Beethoven and Bruckner, alongside his celebrated performances of great choral works such as the Verdi, Brahms and Mozart Requiems and Haydn's Die Schöpfung, as well as Mozart's opera Zaide, Haydn's Orlando paladino and Gershwin's Porgy and Bess. Also included are previously authorized but unreleased recordings of J. S. Bach s Cantatas Nos. 26 & 36, Beethoven's Christus am Ölberge and Dvorák's Stabat Mater.

Contents:
CD 49-50: Smetana: Má Vlast
CD 51: Brahms: Ein deutsches Requiem
CD 52-53: Dvořák: Stabat Mater
CD 54: Bartók: Music for Strings, Percussion and Celesta; Divertimento for String Orchestra


Bedřich Smetana: Má Vlast
CD 49: [39:30]
01. Vyšehrad
02. Vltava
03. Sárka
CD 50: [43:44]
01. Z českých luhů a hájů
02. Tábor
03. Blaník

Wiener Philharmoniker
Nikolaus Harnoncourt, conductor

Johannes Brahms: Ein deutsches Requiem, Op. 45
CD 51: [72:05]
01. I. Selig sind, die da Leid tragen (Ziemlich langsam)
02. II. Denn alles Fleisch, es ist wie Gras (Langsam, marschmäßig)
03. III. Herr, lehre doch mich, dass ein Ende mit mir haben muss (Andante moderato)
04. IV. Wie lieblich sind deine Wohnungen (Mäßig bewegt)
05. V. Ihr habt nun Traurigkeit (Langsam)
06. VI. Denn wir haben hier keine bleibende Statt (Andante)
07. VII. Selig sind die Toten, die in dem Herren sterben (Feierlich)

Genia Kühmeier, soprano
Thomas Hampson, baritone
Arnold Schoenberg Choir
Wiener Philharmoniker
Nikolaus Harnoncourt, conductor

Antonín Dvořák: Stabat Mater, op. 58
CD 52: [48:40]
01. No. 1 Quartet & Chorus: 'Stabat Mater dolorosa'
02. No. 2 Quartet: 'Quis est homo qui non fleret'
03. No. 3 Chorus: 'Eia, Mater, fons amoris'
04. No. 4 Bass & Chorus: 'Fac ut ardeat cor meum'
CD 53: [38:20]
01. No. 5 Chorus: 'Tui nati vulnerati'
02. No. 6 Tenor & Chorus: 'Fac me vere tecum flere'
03. No. 7 Chorus: 'Virgo virginum praeclara'
04. No. 8 Soprano & Tenor Duet: 'Fac ut portem Christi mortem'
05. No. 9 Alto: 'Inflammatus et accensus'
06. No. 10 Quartet & Chorus: 'Quando corpus morietur'

Luba Orgonášová, soprano
Birgit Remmert, alto
Piotr Beczala, tenor
Franz Hawlata, bass
Chor des Bayerischen Rundfunks
Symphonieorchester des Bayerischen Rundfunks
Nikolaus Harnoncourt, conductor

Béla Bartók: Music for Strings, Percussion and Celesta; Divertimento for String Orchestra
CD 54: [60:34]
Music for Strings, Percussion & Celesta, Sz. 106
01. I. Andante tranquillo
02. II. Allegro
03. III. Adagio
04. IV. Allegro molto
Divertimento for Strings, Sz. 113
05. I. Allegro non troppo
06. II. Molto adagio
07. III. Allegro assai

Chamber Orchestra of Europe
Nikolaus Harnoncourt, conductor



Exact Audio Copy V1.6 from 23. October 2020

EAC extraction logfile from 5. August 2021, 19:48

Nikolaus Harnoncourt, Wiener Philharmoniker / Smetana - Má Vlast CD1

Used drive : PIONEER DVD-RW DVR-218L Adapter: 1 ID: 0

Read mode : Secure
Utilize accurate stream : Yes
Defeat audio cache : Yes
Make use of C2 pointers : No

Read offset correction : 6
Overread into Lead-In and Lead-Out : No
Fill up missing offset samples with silence : Yes
Delete leading and trailing silent blocks : No
Null samples used in CRC calculations : Yes
Used interface : Native Win32 interface for Win NT & 2000

Used output format : User Defined Encoder
Selected bitrate : 128 kBit/s
Quality : High
Add ID3 tag : No
Command line compressor : C:\Program Files\Exact Audio Copy\Flac\flac.exe
Additional command line options : -V -8 -T "Date=%year%" -T "Genre=%genre%" %source%


TOC of the extracted CD

Track | Start | Length | Start sector | End sector
––––––––––––––––––––––––––––-
1 | 0:00.00 | 15:54.66 | 0 | 71615
2 | 15:54.66 | 12:54.26 | 71616 | 129691
3 | 28:49.17 | 10:41.13 | 129692 | 177779


Range status and errors

Selected range

Filename C:\ArlegZ\Nikolaus Harnoncourt - Smetana - Má Vlast CD1.wav

Peak level 100.0 %
Extraction speed 1.7 X
Range quality 100.0 %
Test CRC 38DCC101
Copy CRC 38DCC101
Copy OK

No errors occurred


AccurateRip summary

Track 1 accurately ripped (confidence 57) [4A60F606] (AR v2)
Track 2 accurately ripped (confidence 57) [72A0C1C9] (AR v2)
Track 3 accurately ripped (confidence 55) [0976F02B] (AR v2)

All tracks accurately ripped

End of status report

–– CUETools DB Plugin V2.1.6

[CTDB TOCID: 4OOgLXfCrQgjRQ.LrHnuHjGmkwA-] found
Submit result: 4OOgLXfCrQgjRQ.LrHnuHjGmkwA- has been confirmed
Track | CTDB Status
1 | (173/174) Accurately ripped
2 | (171/174) Accurately ripped
3 | (173/174) Accurately ripped


==== Log checksum 092C512F5548AA162718B78A9CC80B6DBDC3385C9A1A58688EA20D78894843CD ====


Exact Audio Copy V1.6 from 23. October 2020

EAC extraction logfile from 5. August 2021, 20:44

Nikolaus Harnoncourt, Wiener Philharmoniker / Smetana - Má Vlast CD2

Used drive : PIONEER DVD-RW DVR-218L Adapter: 1 ID: 0

Read mode : Secure
Utilize accurate stream : Yes
Defeat audio cache : Yes
Make use of C2 pointers : No

Read offset correction : 6
Overread into Lead-In and Lead-Out : No
Fill up missing offset samples with silence : Yes
Delete leading and trailing silent blocks : No
Null samples used in CRC calculations : Yes
Used interface : Native Win32 interface for Win NT & 2000

Used output format : User Defined Encoder
Selected bitrate : 128 kBit/s
Quality : High
Add ID3 tag : No
Command line compressor : C:\Program Files\Exact Audio Copy\Flac\flac.exe
Additional command line options : -V -8 -T "Date=%year%" -T "Genre=%genre%" %source%


TOC of the extracted CD

Track | Start | Length | Start sector | End sector
––––––––––––––––––––––––––––-
1 | 0:00.00 | 13:52.01 | 0 | 62400
2 | 13:52.01 | 14:24.72 | 62401 | 127272
3 | 28:16.73 | 15:27.36 | 127273 | 196833


Range status and errors

Selected range

Filename C:\ArlegZ\Nikolaus Harnoncourt - Smetana - Má Vlast CD2.wav

Peak level 92.9 %
Extraction speed 1.7 X
Range quality 99.9 %
Test CRC AF109F11
Copy CRC AF109F11
Copy OK

No errors occurred


AccurateRip summary

Track 1 accurately ripped (confidence 65) [4082BB27] (AR v2)
Track 2 accurately ripped (confidence 65) [1772A3A2] (AR v2)
Track 3 accurately ripped (confidence 65) [8EA11CFE] (AR v2)

All tracks accurately ripped

End of status report

–– CUETools DB Plugin V2.1.6

[CTDB TOCID: 9wpQMfbiwDyX7npdw5zMiooeNU8-] found
Submit result: 9wpQMfbiwDyX7npdw5zMiooeNU8- has been confirmed
Track | CTDB Status
1 | (168/168) Accurately ripped
2 | (168/168) Accurately ripped
3 | (166/168) Accurately ripped


==== Log checksum 86405F7C2ABC2D2DDE2A2EF0EB0A230028C525E8EBEA2DAC6E2812FEEF2DD205 ====


Exact Audio Copy V1.6 from 23. October 2020

EAC extraction logfile from 7. August 2021, 12:03

Nikolaus Harnoncourt, Wiener Philharmoniker, Arnold Schoenberg Chor / Brahms - Ein Deutsches Requiem

Used drive : PIONEER DVD-RW DVR-218L Adapter: 1 ID: 0

Read mode : Secure
Utilize accurate stream : Yes
Defeat audio cache : Yes
Make use of C2 pointers : No

Read offset correction : 6
Overread into Lead-In and Lead-Out : No
Fill up missing offset samples with silence : Yes
Delete leading and trailing silent blocks : No
Null samples used in CRC calculations : Yes
Used interface : Native Win32 interface for Win NT & 2000

Used output format : User Defined Encoder
Selected bitrate : 128 kBit/s
Quality : High
Add ID3 tag : No
Command line compressor : C:\Program Files\Exact Audio Copy\Flac\flac.exe
Additional command line options : -V -8 -T "Date=%year%" -T "Genre=%genre%" %source%


TOC of the extracted CD

Track | Start | Length | Start sector | End sector
––––––––––––––––––––––––––––-
1 | 0:00.00 | 9:58.01 | 0 | 44850
2 | 9:58.01 | 16:02.54 | 44851 | 117054
3 | 26:00.55 | 10:47.57 | 117055 | 165636
4 | 36:48.37 | 5:54.01 | 165637 | 192187
5 | 42:42.38 | 7:00.51 | 192188 | 223738
6 | 49:43.14 | 12:35.39 | 223739 | 280402
7 | 62:18.53 | 9:45.65 | 280403 | 324342


Range status and errors

Selected range

Filename C:\ArlegZ\Nikolaus Harnoncourt - Brahms - Ein Deutsches Requiem.wav

Peak level 99.6 %
Extraction speed 2.1 X
Range quality 100.0 %
Test CRC 81608407
Copy CRC 81608407
Copy OK

No errors occurred


AccurateRip summary

Track 1 accurately ripped (confidence 41) [22C9D501] (AR v2)
Track 2 accurately ripped (confidence 39) [8603C8E9] (AR v2)
Track 3 accurately ripped (confidence 38) [273D4FF2] (AR v2)
Track 4 accurately ripped (confidence 40) [261E4A68] (AR v2)
Track 5 accurately ripped (confidence 40) [5CA15D70] (AR v2)
Track 6 accurately ripped (confidence 39) [F4118B2F] (AR v2)
Track 7 accurately ripped (confidence 39) [1E745E5E] (AR v2)

All tracks accurately ripped

End of status report

–– CUETools DB Plugin V2.1.6

[CTDB TOCID: z7UfEjjKHrhfQZK2bZDzVRMy9eM-] found
Submit result: z7UfEjjKHrhfQZK2bZDzVRMy9eM- has been confirmed
Track | CTDB Status
1 | (209/211) Accurately ripped
2 | (208/211) Accurately ripped
3 | (208/211) Accurately ripped
4 | (208/211) Accurately ripped
5 | (207/211) Accurately ripped
6 | (206/211) Accurately ripped
7 | (206/211) Accurately ripped


==== Log checksum 6FF8918910F975B302002F5BAF3D5339EB876417FBC68998733444974DE73A5D ====


Exact Audio Copy V1.6 from 23. October 2020

EAC extraction logfile from 7. August 2021, 13:20

Nikolaus Harnoncourt, Symphonieorchester und Chor des Bayerischen Rundfunks / Dvořák - Stabat Mater CD1

Used drive : PIONEER DVD-RW DVR-218L Adapter: 1 ID: 0

Read mode : Secure
Utilize accurate stream : Yes
Defeat audio cache : Yes
Make use of C2 pointers : No

Read offset correction : 6
Overread into Lead-In and Lead-Out : No
Fill up missing offset samples with silence : Yes
Delete leading and trailing silent blocks : No
Null samples used in CRC calculations : Yes
Used interface : Native Win32 interface for Win NT & 2000

Used output format : User Defined Encoder
Selected bitrate : 128 kBit/s
Quality : High
Add ID3 tag : No
Command line compressor : C:\Program Files\Exact Audio Copy\Flac\flac.exe
Additional command line options : -V -8 -T "Date=%year%" -T "Genre=%genre%" %source%


TOC of the extracted CD

Track | Start | Length | Start sector | End sector
––––––––––––––––––––––––––––-
1 | 0:00.00 | 20:38.27 | 0 | 92876
2 | 20:38.27 | 11:35.13 | 92877 | 145014
3 | 32:13.40 | 7:11.70 | 145015 | 177409
4 | 39:25.35 | 9:14.50 | 177410 | 219009


Range status and errors

Selected range

Filename C:\ArlegZ\Nikolaus Harnoncourt - Dvořák - Stabat Mater CD1.wav

Peak level 96.2 %
Extraction speed 1.7 X
Range quality 100.0 %
Test CRC D9556A27
Copy CRC D9556A27
Copy OK

No errors occurred


AccurateRip summary

Track 1 accurately ripped (confidence 12) [46494157] (AR v2)
Track 2 accurately ripped (confidence 12) [720B7DF9] (AR v2)
Track 3 accurately ripped (confidence 12) [413DE3FF] (AR v2)
Track 4 accurately ripped (confidence 12) [33C3C2FC] (AR v2)

All tracks accurately ripped

End of status report

–– CUETools DB Plugin V2.1.6

[CTDB TOCID: _t21lXlmm2e3zaF1DVVWdCu4pYc-] found
Submit result: _t21lXlmm2e3zaF1DVVWdCu4pYc- has been confirmed
Track | CTDB Status
1 | (44/44) Accurately ripped
2 | (44/44) Accurately ripped
3 | (44/44) Accurately ripped
4 | (43/44) Accurately ripped


==== Log checksum C7E732585AF1E51EA7EE42E425A69FDBA48164CE275F121D28DDE20CC86BFB2F ====


Exact Audio Copy V1.6 from 23. October 2020

EAC extraction logfile from 7. August 2021, 14:56

Nikolaus Harnoncourt, Symphonieorchester und Chor des Bayerischen Rundfunks / Dvořák - Stabat Mater CD2

Used drive : PIONEER DVD-RW DVR-218L Adapter: 1 ID: 0

Read mode : Secure
Utilize accurate stream : Yes
Defeat audio cache : Yes
Make use of C2 pointers : No

Read offset correction : 6
Overread into Lead-In and Lead-Out : No
Fill up missing offset samples with silence : Yes
Delete leading and trailing silent blocks : No
Null samples used in CRC calculations : Yes
Used interface : Native Win32 interface for Win NT & 2000

Used output format : User Defined Encoder
Selected bitrate : 128 kBit/s
Quality : High
Add ID3 tag : No
Command line compressor : C:\Program Files\Exact Audio Copy\Flac\flac.exe
Additional command line options : -V -8 -T "Date=%year%" -T "Genre=%genre%" %source%


TOC of the extracted CD

Track | Start | Length | Start sector | End sector
––––––––––––––––––––––––––––-
1 | 0:00.00 | 5:14.08 | 0 | 23557
2 | 5:14.08 | 6:58.58 | 23558 | 54965
3 | 12:12.66 | 6:50.40 | 54966 | 85755
4 | 19:03.31 | 5:26.20 | 85756 | 110225
5 | 24:29.51 | 6:09.67 | 110226 | 137967
6 | 30:39.43 | 7:39.67 | 137968 | 172459


Range status and errors

Selected range

Filename C:\ArlegZ\Nikolaus Harnoncourt - Dvořák - Stabat Mater CD2.wav

Peak level 97.6 %
Extraction speed 1.6 X
Range quality 100.0 %
Test CRC 22E6B1C1
Copy CRC 22E6B1C1
Copy OK

No errors occurred


AccurateRip summary

Track 1 accurately ripped (confidence 14) [7D438F29] (AR v2)
Track 2 accurately ripped (confidence 14) [AAC98340] (AR v2)
Track 3 accurately ripped (confidence 14) [B0D200D5] (AR v2)
Track 4 accurately ripped (confidence 14) [2F8B3649] (AR v2)
Track 5 accurately ripped (confidence 14) [16F6C75C] (AR v2)
Track 6 accurately ripped (confidence 14) [EAEF5CDA] (AR v2)

All tracks accurately ripped

End of status report

–– CUETools DB Plugin V2.1.6

[CTDB TOCID: DFs1Xxwr8jM8Yv0mfTCSrJGclqI-] found
Submit result: DFs1Xxwr8jM8Yv0mfTCSrJGclqI- has been confirmed
Track | CTDB Status
1 | (51/51) Accurately ripped
2 | (51/51) Accurately ripped
3 | (51/51) Accurately ripped
4 | (51/51) Accurately ripped
5 | (51/51) Accurately ripped
6 | (51/51) Accurately ripped


==== Log checksum 2C741DDA09147EAC57AB9E9B819FE69AB3BDA5250757943EA0EEBB56FBEACDAE ====


Exact Audio Copy V1.6 from 23. October 2020

EAC extraction logfile from 7. August 2021, 16:24

Nikolaus Harnoncourt, Chamber Orchestra of Europe / Bartók - Music for Strings, Percussion and Celesta

Used drive : PIONEER DVD-RW DVR-218L Adapter: 1 ID: 0

Read mode : Secure
Utilize accurate stream : Yes
Defeat audio cache : Yes
Make use of C2 pointers : No

Read offset correction : 6
Overread into Lead-In and Lead-Out : No
Fill up missing offset samples with silence : Yes
Delete leading and trailing silent blocks : No
Null samples used in CRC calculations : Yes
Used interface : Native Win32 interface for Win NT & 2000

Used output format : User Defined Encoder
Selected bitrate : 128 kBit/s
Quality : High
Add ID3 tag : No
Command line compressor : C:\Program Files\Exact Audio Copy\Flac\flac.exe
Additional command line options : -V -8 -T "Date=%year%" -T "Genre=%genre%" %source%


TOC of the extracted CD

Track | Start | Length | Start sector | End sector
––––––––––––––––––––––––––––-
1 | 0:00.00 | 9:09.50 | 0 | 41224
2 | 9:09.50 | 7:49.12 | 41225 | 76411
3 | 16:58.62 | 8:05.28 | 76412 | 112814
4 | 25:04.15 | 8:07.72 | 112815 | 149411
5 | 33:12.12 | 9:16.63 | 149412 | 191174
6 | 42:29.00 | 10:11.57 | 191175 | 237056
7 | 52:40.57 | 7:52.63 | 237057 | 272519


Range status and errors

Selected range

Filename C:\ArlegZ\Nikolaus Harnoncourt - Bartók - Music for Strings, Percussion and Celesta.wav

Peak level 97.8 %
Extraction speed 1.9 X
Range quality 100.0 %
Test CRC 1691C062
Copy CRC 1691C062
Copy OK

No errors occurred


AccurateRip summary

Track 1 accurately ripped (confidence 38) [DD91DED5] (AR v2)
Track 2 accurately ripped (confidence 38) [17496AD6] (AR v2)
Track 3 accurately ripped (confidence 38) [D971B5F9] (AR v2)
Track 4 accurately ripped (confidence 38) [09A51313] (AR v2)
Track 5 accurately ripped (confidence 38) [0085397E] (AR v2)
Track 6 accurately ripped (confidence 38) [690B4E07] (AR v2)
Track 7 accurately ripped (confidence 38) [321FBD46] (AR v2)

All tracks accurately ripped

End of status report

–– CUETools DB Plugin V2.1.6

[CTDB TOCID: WBtyrxulUR55K6eEGKqDij_WAhM-] found
Submit result: WBtyrxulUR55K6eEGKqDij_WAhM- has been confirmed
Track | CTDB Status
1 | (78/79) Accurately ripped
2 | (78/79) Accurately ripped
3 | (78/79) Accurately ripped
4 | (79/79) Accurately ripped
5 | (78/79) Accurately ripped
6 | (78/79) Accurately ripped
7 | (78/79) Accurately ripped


==== Log checksum 2C0CAE4CFBAF284CAA3C347DE7B0F987366FEDBF831E892C47A70FD08E723075 ====


Nikolaus Harnoncourt - The Complete Sony Recordings, Part 10 [6CDs] (2016)