Tags
Language
Tags

Nikolaus Harnoncourt, Wiener Philharmoniker - Mozart: Le nozze di Figaro (2007)

Posted By:
Nikolaus Harnoncourt, Wiener Philharmoniker - Mozart: Le nozze di Figaro (2007)

Nikolaus Harnoncourt, Wiener Philharmoniker, Anna Netrebko, Ildebrando D'Arcangelo - Mozart: Le nozze di Figaro (2007)
EAC | FLAC | Image (Cue & Log) ~ 916 Mb | Total time: 189:54 | Scans included
Classical | Label: Deutsche Grammophon | # 00289 4776710 | Recorded: 2006

Anna Netrebko once again triumphed at the 2006 Salzburg Festival with her winning portrayal of Susanna in Claus Guth's new production of Le nozze di Figaro, the highlights of which can be heard on this spectacular CD. Led by conductor Nikolaus Harnoncourt with the Vienna Philharmonic, this production of Figaro garnered critical acclaim: "Guth and Harnoncourt have opened up a new perspective on an opera that is normally staged as a lightweight, turbulent farce," wrote the Zeit Online, while Die Welt described Harnoncourt as "a sorcerer able to conjure up magical sounds." Bloomberg echoed the positive accolades: "This Marriage of Figaro should go down in history as departing director Peter Ruzicka's greatest Salzburg achievement…four hours of perfection." Anna Netrebko's performance also received rave reviews: "The Russian pearl with the servant's apron is part of the whole, flying along as if weightless, as light as a wisp of smoke, wholly individual," reported Die Welt. "As a character she is pure delight, her vocal style simply bowls you over."

Performer:
Figaro - Ildebrando D'Arcangelo
Susanna - Anna Netrebko
Count Almaviva - Bo Skovhus
Countess Almaviva - Dorothea Röschmann
Cherubino - Christine Schäfer
Marcellina - Marie McLaughlin
Bartolo - Franz-Josef Selig
Basilio - Patrick Henckens
Don Curzio - Oliver Ringelhahn
Antonio - Florian Boesch
Barbarina - Eva Liebau
Konzertvereinigung Wiener Staatsopernchor
Wiener Philharmoniker
Conductor - Nikolaus Harnoncourt

Track List:
CD1:
01. Sinfonia
02. Atto I. Cinque… dieci… venti… trenta (Figaro, Susanna)
03. Cosa stai misurando (Susanna, Figaro)
04. Se a caso Madama la notte ti chiama (Figaro, Susanna)
05. Or bene, ascolta, e taci (Susanna, Figaro)
06. Bravo, Signor padrone! (Figaro)
07. Se vuol ballare, signor Contino (Figaro)
08. Ed aspettaste il giorno fissato a le sue nozze (Bartolo, Marcellina)
09. La vendetta, oh, la vendetta (Bartolo)
10. Tutto ancor no ho perso (Marcellina, Susanna)
11. Via resti servita, madama brillante (Marcellina, Susanna)
12. Va' là, vecchia pedante - Susannetta, sei tu? (Cherubino, Susanna)
13. Non so più cosa son, cosa faccio (Cherubino)
14. Ah, son perduto! (Cherubino, Susanna, Conte, Basilio)
15. Cosa sento! tosto andate (Conte, Basilio, Susanna)
16. Basilio, in traccia tosto du Figaro (Conte, Susanna, Cherubino, Basilio)
17. Giovani liete, fiori spargete (Coro)
18. Cos'è questa commedia? (Conte, Figaro, Susanna, Coro)
19. Giovani liete, fiori spargete (Coro)
20. Evviva! (Figaro, Susanna, Basilio, Cherubino, Conte)
21. Non più andrai, farfallone amoroso (Figaro)
CD2:
01. Atto II. Porgi, amor, qualche ristoro (Contessa)
02. Vieni, cara Susanna (Contessa, Susanna, Figaro)
03. Quanto duolmi, Susanna (Contessa, Susanna, Cherubino)
04. Voi che sapete che cosa è amor (Cherubino)
05. Bravo! che bella voce! (Contessa, Susanna, Cherubino)
06. Venite… inginocchiatevi… (Susanna)
07. Quante buffonerie! (Contessa, Susanna, Cherubino, Conte)
08. Che novità! (Conte, Contessa)
09. Susanna, or via, sortite! (Conte, Contessa, Susanna)
10. Dunque, voi non aprite? (Conte, Contessa)
11. Aprite, presto, aprite (Susanna, Cherubino)
12. Oh guarda il demonietto! (Susanna)
13. Tutto è come io lasciai (Conte, Contessa)
14. Esci, ormai, garzon malnato - Susanna!… Signore! (Conte, Contessa, Susanna)
15. Susanna, son morta (Contessa, Susanna, Conte)
16. Signori di fuori son già i suonatori (Figaro, Conte, Susanna, Contessa)
17. Conoscete, signor Figaro (Conte, Figaro, Susanna, Contessa)
18. Ah! signor, signor! (Antonio, Conte, Susanna, Contessa, Figaro)
19. Vostre dunque saran queste carte (Antonio, Conte, Figaro, Susanna, Contessa)
20. Voi signor, che giusto siete (Marcellina, Basilio, Bartolo, Conte, Contessa, Figaro, Susanna)
21. Atto III. Che imbarazzo è mai questo - Via, fatti core (Conte, Contessa, Susanna)
22. Crudel! perché finora (Conte, Contessa)
23. E perché fosti meco (Conte, Contessa, Figaro)
24. Hai già vinta la causa - Vedrò mentr'io sospiro (Conte)
CD3:
01. È decisa la lite (Don Curzio, Marcellina, Figaro, Conte, Bartolo)
02. Riconosci in questo amplesso (Marcellina, Figaro, Bartolo, Don Curzio, Conte, Susanna)
03. Eccovi, o caro amico (Marcellina, Bartolo, Susanna, Figaro)
04. Andiamo, andiam, bel paggio (Barbarina, Cherubino)
05. E Susanna non vien! - Dove sono i bei momenti (Contessa)
06. Io vi dico, signor - Cosa mi narri! (Antonio, Conte, Contessa, Susanna)
07. Sull'aria - Che soave zeffiretto (Susanna, Contessa)
08. Piegato è il foglio… (Susanna, Contessa)
09. Ricevete, o padroncina (Coro)
10. Queste sono, Madama - Eh cospettaccio! - Signor, se trattene (Barbarina, Contessa, Susanna, Antonio, Conte, Cherubino, Figaro)
11. Ecco la marcia… andiamo (Figaro, Susanna, Conte, Contessa)
12. Amanti costanti, seguaci d'onor (Due contadine, coro)
13. Eh già, solita usanza (Conte, Figaro)
14. Andate, amici (Conte, coro)
15. Atto IV. L'ho perduta… me meschina! (Barbarina)
16. Barbarina, cos'hai? - Madre… Figlio. - Presto, avvertiam Susanna (Figaro, Barbarina, Marcellina)
17. Il capro e la capretta (Marcellina)
18. Chi va là? (Figaro, Basilio, Bartolo)
19. In quegli anni in cui val poco (Basilio)
20. Tutto è disposto - Aprite un po' quegli occhi (Figaro)
21. Madama voi tremate (Susanna, Contessa, Figaro)
22. Giunse alfin il momento - Deh vieni non tardar (Susanna)
23. Perfida! E in quella forma meco mentia? (Figaro, Cherubino, Contessa)
24. Pian pianin le andrò più presso (Cherubino, Contessa, Conte, Susanna, Figaro)
25. Ecco qui la mia Susanna (Conte, Susanna, Figaro, Cherubino, Contessa)
26. Tutto è tranquillo e placido (Figaro, Susanna, Conte)
27. Pace, pace, mio dolce tesoro (Figaro, Susanna, Conte)
28. Gente, gente, all'armi, all'armi! (Conte, Figaro, Don Curzio, Basilio, Antonio, Bartolo, Susanna, Barbarina, Cherubino, Marcellina, Contessa)


Exact Audio Copy V1.3 from 2. September 2016

EAC extraction logfile from 5. February 2020, 13:04

Nikolaus Harnoncourt / Mozart: Le Nozze di Figaro

Used drive : HL-DT-STDVDRAM GH24NSD5 Adapter: 1 ID: 0

Read mode : Secure
Utilize accurate stream : Yes
Defeat audio cache : Yes
Make use of C2 pointers : No

Read offset correction : 6
Overread into Lead-In and Lead-Out : No
Fill up missing offset samples with silence : Yes
Delete leading and trailing silent blocks : No
Null samples used in CRC calculations : Yes
Used interface : Native Win32 interface for Win NT & 2000

Used output format : User Defined Encoder
Selected bitrate : 896 kBit/s
Quality : High
Add ID3 tag : No
Command line compressor : C:\Program Files (x86)\Exact Audio Copy\FLAC\FLAC.EXE
Additional command line options : -6 -V -T "ARTIST=%artist%" -T "TITLE=%title%" -T "ALBUM=%albumtitle%" -T "DATE=%year%" -T "TRACKNUMBER=%tracknr%" -T "GENRE=%genre%" -T "COMMENT=%comment%" -T "BAND=%albuminterpret%" -T "ALBUMARTIST=%albuminterpret%" -T "COMPOSER=%composer%" %haslyrics%–tag-from-file=LYRICS="%lyricsfile%"%haslyrics% -T "DISCNUMBER=%cdnumber%" -T "TOTALDISCS=%totalcds%" -T "TOTALTRACKS=%numtracks%" %hascover%–picture="%coverfile%"%hascover% %source% -o %dest%


TOC of the extracted CD

Track | Start | Length | Start sector | End sector
––––––––––––––––––––––––––––-
1 | 0:00.00 | 5:05.62 | 0 | 22936
2 | 5:05.62 | 3:01.07 | 22937 | 36518
3 | 8:06.69 | 0:55.29 | 36519 | 40672
4 | 9:02.23 | 3:11.61 | 40673 | 55058
5 | 12:14.09 | 2:08.63 | 55059 | 64721
6 | 14:22.72 | 1:02.22 | 64722 | 69393
7 | 15:25.19 | 2:41.47 | 69394 | 81515
8 | 18:06.66 | 1:15.24 | 81516 | 87164
9 | 19:22.15 | 3:25.26 | 87165 | 102565
10 | 22:47.41 | 0:52.45 | 102566 | 106510
11 | 23:40.11 | 1:57.64 | 106511 | 115349
12 | 25:38.00 | 2:25.02 | 115350 | 126226
13 | 28:03.02 | 2:59.05 | 126227 | 139656
14 | 31:02.07 | 4:11.07 | 139657 | 158488
15 | 35:13.14 | 5:08.30 | 158489 | 181618
16 | 40:21.44 | 1:05.20 | 181619 | 186513
17 | 41:26.64 | 1:03.40 | 186514 | 191278
18 | 42:30.29 | 1:27.12 | 191279 | 197815
19 | 43:57.41 | 0:54.08 | 197816 | 201873
20 | 44:51.49 | 1:24.19 | 201874 | 208192
21 | 46:15.68 | 4:07.07 | 208193 | 226724


Range status and errors

Selected range

Filename I:\Rips\Mozart WA - Le Nozze di Figaro - Harnoncourt (2007)\CD1\Nikolaus Harnoncourt - Mozart- Le Nozze di Figaro (CD1).wav

Peak level 100.0 %
Extraction speed 6.9 X
Range quality 100.0 %
Test CRC 6CE9C19A
Copy CRC 6CE9C19A
Copy OK

No errors occurred


AccurateRip summary

Track 1 accurately ripped (confidence 59) [5F93F9EB] (AR v2)
Track 2 accurately ripped (confidence 59) [10224AA4] (AR v2)
Track 3 accurately ripped (confidence 58) [332BECA8] (AR v2)
Track 4 accurately ripped (confidence 58) [59D7465A] (AR v2)
Track 5 accurately ripped (confidence 57) [32046456] (AR v2)
Track 6 accurately ripped (confidence 58) [E4FC252B] (AR v2)
Track 7 accurately ripped (confidence 58) [9A65DDBF] (AR v2)
Track 8 accurately ripped (confidence 57) [CEF02222] (AR v2)
Track 9 accurately ripped (confidence 58) [9D8E3670] (AR v2)
Track 10 accurately ripped (confidence 58) [4CAC6C00] (AR v2)
Track 11 accurately ripped (confidence 59) [5DF20695] (AR v2)
Track 12 accurately ripped (confidence 58) [62161FAA] (AR v2)
Track 13 accurately ripped (confidence 59) [2A4A70FC] (AR v2)
Track 14 accurately ripped (confidence 58) [4A3D02AD] (AR v2)
Track 15 accurately ripped (confidence 59) [537740C9] (AR v2)
Track 16 accurately ripped (confidence 58) [14E3FB91] (AR v2)
Track 17 accurately ripped (confidence 59) [8B1654FD] (AR v2)
Track 18 accurately ripped (confidence 58) [8B21C780] (AR v2)
Track 19 accurately ripped (confidence 59) [53FEAAF2] (AR v2)
Track 20 accurately ripped (confidence 58) [3B020726] (AR v2)
Track 21 accurately ripped (confidence 59) [E047FAA7] (AR v2)

All tracks accurately ripped

End of status report

–– CUETools DB Plugin V2.1.6

[CTDB TOCID: sgr34Lv8xB9z6aDv24CllfjDMKI-] found
Submit result: sgr34Lv8xB9z6aDv24CllfjDMKI- has been confirmed
Track | CTDB Status
1 | (91/92) Accurately ripped
2 | (91/92) Accurately ripped
3 | (91/92) Accurately ripped
4 | (90/92) Accurately ripped
5 | (91/92) Accurately ripped
6 | (91/92) Accurately ripped
7 | (91/92) Accurately ripped
8 | (91/92) Accurately ripped
9 | (91/92) Accurately ripped
10 | (91/92) Accurately ripped
11 | (91/92) Accurately ripped
12 | (91/92) Accurately ripped
13 | (91/92) Accurately ripped
14 | (91/92) Accurately ripped
15 | (91/92) Accurately ripped
16 | (91/92) Accurately ripped
17 | (91/92) Accurately ripped
18 | (91/92) Accurately ripped
19 | (91/92) Accurately ripped
20 | (91/92) Accurately ripped
21 | (90/92) Accurately ripped


==== Log checksum 2F750C5FBC0705650BD04B90100357028E49772886FDBE865D88B1C4AF6C4149 ====


Exact Audio Copy V1.3 from 2. September 2016

EAC extraction logfile from 5. February 2020, 13:47

Nikolaus Harnoncourt / Mozart: Le Nozze di Figaro (Disc 2)

Used drive : HL-DT-STDVDRAM GH24NSD5 Adapter: 1 ID: 0

Read mode : Secure
Utilize accurate stream : Yes
Defeat audio cache : Yes
Make use of C2 pointers : No

Read offset correction : 6
Overread into Lead-In and Lead-Out : No
Fill up missing offset samples with silence : Yes
Delete leading and trailing silent blocks : No
Null samples used in CRC calculations : Yes
Used interface : Native Win32 interface for Win NT & 2000

Used output format : User Defined Encoder
Selected bitrate : 896 kBit/s
Quality : High
Add ID3 tag : No
Command line compressor : C:\Program Files (x86)\Exact Audio Copy\FLAC\FLAC.EXE
Additional command line options : -6 -V -T "ARTIST=%artist%" -T "TITLE=%title%" -T "ALBUM=%albumtitle%" -T "DATE=%year%" -T "TRACKNUMBER=%tracknr%" -T "GENRE=%genre%" -T "COMMENT=%comment%" -T "BAND=%albuminterpret%" -T "ALBUMARTIST=%albuminterpret%" -T "COMPOSER=%composer%" %haslyrics%–tag-from-file=LYRICS="%lyricsfile%"%haslyrics% -T "DISCNUMBER=%cdnumber%" -T "TOTALDISCS=%totalcds%" -T "TOTALTRACKS=%numtracks%" %hascover%–picture="%coverfile%"%hascover% %source% -o %dest%


TOC of the extracted CD

Track | Start | Length | Start sector | End sector
––––––––––––––––––––––––––––-
1 | 0:00.00 | 3:27.71 | 0 | 15595
2 | 3:27.71 | 4:03.24 | 15596 | 33844
3 | 7:31.20 | 1:24.51 | 33845 | 40195
4 | 8:55.71 | 3:14.20 | 40196 | 54765
5 | 12:10.16 | 1:30.03 | 54766 | 61518
6 | 13:40.19 | 3:31.00 | 61519 | 77343
7 | 17:11.19 | 1:11.62 | 77344 | 82730
8 | 18:23.06 | 1:43.13 | 82731 | 90468
9 | 20:06.19 | 4:05.04 | 90469 | 108847
10 | 24:11.23 | 1:09.34 | 108848 | 114056
11 | 25:20.57 | 1:28.37 | 114057 | 120693
12 | 26:49.19 | 0:28.49 | 120694 | 122842
13 | 27:17.68 | 1:36.20 | 122843 | 130062
14 | 28:54.13 | 4:42.31 | 130063 | 151243
15 | 33:36.44 | 4:54.58 | 151244 | 173351
16 | 38:31.27 | 1:02.06 | 173352 | 178007
17 | 39:33.33 | 2:18.01 | 178008 | 188358
18 | 41:51.34 | 3:19.07 | 188359 | 203290
19 | 45:10.41 | 2:47.54 | 203291 | 215869
20 | 47:58.20 | 4:33.66 | 215870 | 236410
21 | 52:32.11 | 3:00.50 | 236411 | 249960
22 | 55:32.61 | 2:59.38 | 249961 | 263423
23 | 58:32.24 | 1:09.73 | 263424 | 268671
24 | 59:42.22 | 4:42.31 | 268672 | 289852


Range status and errors

Selected range

Filename I:\Rips\Mozart WA - Le Nozze di Figaro - Harnoncourt (2007)\CD2\Nikolaus Harnoncourt - Mozart- Le Nozze di Figaro (Disc 2).wav

Peak level 100.0 %
Extraction speed 7.3 X
Range quality 100.0 %
Test CRC 279DA221
Copy CRC 279DA221
Copy OK

No errors occurred


AccurateRip summary

Track 1 accurately ripped (confidence 64) [392663F2] (AR v2)
Track 2 accurately ripped (confidence 62) [3700FB07] (AR v2)
Track 3 accurately ripped (confidence 63) [8DFC8740] (AR v2)
Track 4 accurately ripped (confidence 64) [B16AE234] (AR v2)
Track 5 accurately ripped (confidence 63) [0F648F45] (AR v2)
Track 6 accurately ripped (confidence 64) [CFB0ABBC] (AR v2)
Track 7 accurately ripped (confidence 62) [D1BB18E6] (AR v2)
Track 8 accurately ripped (confidence 62) [C71C990D] (AR v2)
Track 9 accurately ripped (confidence 63) [AEEA868B] (AR v2)
Track 10 accurately ripped (confidence 63) [72997599] (AR v2)
Track 11 accurately ripped (confidence 64) [ECFF7AFB] (AR v2)
Track 12 accurately ripped (confidence 63) [95EC9D18] (AR v2)
Track 13 accurately ripped (confidence 63) [56C5D6EE] (AR v2)
Track 14 accurately ripped (confidence 64) [917582FF] (AR v2)
Track 15 accurately ripped (confidence 63) [920722EF] (AR v2)
Track 16 accurately ripped (confidence 64) [0410E30C] (AR v2)
Track 17 accurately ripped (confidence 64) [45FCF54F] (AR v2)
Track 18 accurately ripped (confidence 64) [396DA6D8] (AR v2)
Track 19 accurately ripped (confidence 64) [64621BA7] (AR v2)
Track 20 accurately ripped (confidence 63) [5B5F5CC3] (AR v2)
Track 21 accurately ripped (confidence 63) [4CEA73D5] (AR v2)
Track 22 accurately ripped (confidence 63) [F21243ED] (AR v2)
Track 23 accurately ripped (confidence 63) [ADCBE9B4] (AR v2)
Track 24 accurately ripped (confidence 63) [6AECC792] (AR v2)

All tracks accurately ripped

End of status report

–– CUETools DB Plugin V2.1.6

[CTDB TOCID: 9WweMiAQZcv9Dvu1tgf2t0kOy.o-] found
Submit result: 9WweMiAQZcv9Dvu1tgf2t0kOy.o- has been confirmed
Track | CTDB Status
1 | (98/99) Accurately ripped
2 | (97/99) Accurately ripped
3 | (98/99) Accurately ripped
4 | (98/99) Accurately ripped
5 | (98/99) Accurately ripped
6 | (98/99) Accurately ripped
7 | (97/99) Accurately ripped
8 | (97/99) Accurately ripped
9 | (97/99) Accurately ripped
10 | (98/99) Accurately ripped
11 | (98/99) Accurately ripped
12 | (98/99) Accurately ripped
13 | (98/99) Accurately ripped
14 | (98/99) Accurately ripped
15 | (97/99) Accurately ripped
16 | (98/99) Accurately ripped
17 | (97/99) Accurately ripped
18 | (98/99) Accurately ripped
19 | (98/99) Accurately ripped
20 | (97/99) Accurately ripped
21 | (98/99) Accurately ripped
22 | (98/99) Accurately ripped
23 | (98/99) Accurately ripped
24 | (96/99) Accurately ripped


==== Log checksum AB826A651EF92389FC609C7E9062E6184EF55D0B5CB584301B3D596E5B751399 ====


Exact Audio Copy V1.3 from 2. September 2016

EAC extraction logfile from 5. February 2020, 15:02

Nikolaus Harnoncourt / Mozart: Le Nozze di Figaro (Disc 3)

Used drive : HL-DT-STDVDRAM GH24NSD5 Adapter: 1 ID: 0

Read mode : Secure
Utilize accurate stream : Yes
Defeat audio cache : Yes
Make use of C2 pointers : No

Read offset correction : 6
Overread into Lead-In and Lead-Out : No
Fill up missing offset samples with silence : Yes
Delete leading and trailing silent blocks : No
Null samples used in CRC calculations : Yes
Used interface : Native Win32 interface for Win NT & 2000

Used output format : User Defined Encoder
Selected bitrate : 896 kBit/s
Quality : High
Add ID3 tag : No
Command line compressor : C:\Program Files (x86)\Exact Audio Copy\FLAC\FLAC.EXE
Additional command line options : -6 -V -T "ARTIST=%artist%" -T "TITLE=%title%" -T "ALBUM=%albumtitle%" -T "DATE=%year%" -T "TRACKNUMBER=%tracknr%" -T "GENRE=%genre%" -T "COMMENT=%comment%" -T "BAND=%albuminterpret%" -T "ALBUMARTIST=%albuminterpret%" -T "COMPOSER=%composer%" %haslyrics%–tag-from-file=LYRICS="%lyricsfile%"%haslyrics% -T "DISCNUMBER=%cdnumber%" -T "TOTALDISCS=%totalcds%" -T "TOTALTRACKS=%numtracks%" %hascover%–picture="%coverfile%"%hascover% %source% -o %dest%


TOC of the extracted CD

Track | Start | Length | Start sector | End sector
––––––––––––––––––––––––––––-
1 | 0:00.00 | 2:25.33 | 0 | 10907
2 | 2:25.33 | 5:16.04 | 10908 | 34611
3 | 7:41.37 | 1:22.01 | 34612 | 40762
4 | 9:03.38 | 0:49.06 | 40763 | 44443
5 | 9:52.44 | 6:51.57 | 44444 | 75325
6 | 16:44.26 | 1:29.33 | 75326 | 82033
7 | 18:13.59 | 2:49.69 | 82034 | 94777
8 | 21:03.53 | 0:26.51 | 94778 | 96778
9 | 21:30.29 | 1:03.07 | 96779 | 101510
10 | 22:33.36 | 3:41.03 | 101511 | 118088
11 | 26:14.39 | 1:59.20 | 118089 | 127033
12 | 28:13.59 | 1:26.24 | 127034 | 133507
13 | 29:40.08 | 1:31.18 | 133508 | 140350
14 | 31:11.26 | 1:45.38 | 140351 | 148263
15 | 32:56.64 | 1:49.17 | 148264 | 156455
16 | 34:46.06 | 3:01.74 | 156456 | 170104
17 | 37:48.05 | 3:33.30 | 170105 | 186109
18 | 41:21.35 | 1:07.01 | 186110 | 191135
19 | 42:28.36 | 4:13.74 | 191136 | 210184
20 | 46:42.35 | 4:34.30 | 210185 | 230764
21 | 51:16.65 | 0:47.12 | 230765 | 234301
22 | 52:04.02 | 4:28.62 | 234302 | 254463
23 | 56:32.64 | 0:41.62 | 254464 | 257600
24 | 57:14.51 | 1:21.40 | 257601 | 263715
25 | 58:36.16 | 4:52.39 | 263716 | 285654
26 | 63:28.55 | 4:04.68 | 285655 | 304022
27 | 67:33.48 | 1:54.04 | 304023 | 312576
28 | 69:27.52 | 5:39.13 | 312577 | 338014


Range status and errors

Selected range

Filename I:\Rips\Mozart WA - Le Nozze di Figaro - Harnoncourt (2007)\CD3\Nikolaus Harnoncourt - Mozart- Le Nozze di Figaro (Disc 3).wav

Peak level 100.0 %
Extraction speed 2.0 X
Range quality 100.0 %
Test CRC 38A87107
Copy CRC 38A87107
Copy OK

No errors occurred


AccurateRip summary

Track 1 accurately ripped (confidence 61) [7E740B70] (AR v2)
Track 2 accurately ripped (confidence 62) [AF738A20] (AR v2)
Track 3 accurately ripped (confidence 62) [ACEEC478] (AR v2)
Track 4 accurately ripped (confidence 62) [FF9A3CC6] (AR v2)
Track 5 accurately ripped (confidence 62) [1607241A] (AR v2)
Track 6 accurately ripped (confidence 61) [A87B545A] (AR v2)
Track 7 accurately ripped (confidence 63) [6FEBC7C9] (AR v2)
Track 8 accurately ripped (confidence 62) [7BD41C3F] (AR v2)
Track 9 accurately ripped (confidence 63) [9BC8F708] (AR v2)
Track 10 accurately ripped (confidence 62) [1B6C7EDC] (AR v2)
Track 11 accurately ripped (confidence 63) [40AF5A26] (AR v2)
Track 12 accurately ripped (confidence 63) [9DEE9445] (AR v2)
Track 13 accurately ripped (confidence 63) [5C5D56DD] (AR v2)
Track 14 accurately ripped (confidence 62) [51224F33] (AR v2)
Track 15 accurately ripped (confidence 63) [5BAC0EC5] (AR v2)
Track 16 accurately ripped (confidence 62) [BB0C2636] (AR v2)
Track 17 accurately ripped (confidence 63) [DE97488F] (AR v2)
Track 18 accurately ripped (confidence 62) [467656AE] (AR v2)
Track 19 accurately ripped (confidence 62) [A17A51E9] (AR v2)
Track 20 accurately ripped (confidence 62) [7A93E2C9] (AR v2)
Track 21 accurately ripped (confidence 62) [AF4EAFE4] (AR v2)
Track 22 accurately ripped (confidence 63) [C1C46981] (AR v2)
Track 23 accurately ripped (confidence 62) [055CD55C] (AR v2)
Track 24 accurately ripped (confidence 63) [16BC310B] (AR v2)
Track 25 accurately ripped (confidence 63) [B72E3AAC] (AR v2)
Track 26 accurately ripped (confidence 63) [4ABEEC86] (AR v2)
Track 27 accurately ripped (confidence 63) [330401C5] (AR v2)
Track 28 accurately ripped (confidence 61) [303579AF] (AR v2)

All tracks accurately ripped

End of status report

–– CUETools DB Plugin V2.1.6

[CTDB TOCID: gJrS6ED.y2ypw0157GaRWPe.U30-] found
Submit result: gJrS6ED.y2ypw0157GaRWPe.U30- has been confirmed
Track | CTDB Status
1 | (97/98) Accurately ripped
2 | (96/98) Accurately ripped
3 | (97/98) Accurately ripped
4 | (97/98) Accurately ripped
5 | (96/98) Accurately ripped
6 | (96/98) Accurately ripped
7 | (97/98) Accurately ripped
8 | (97/98) Accurately ripped
9 | (97/98) Accurately ripped
10 | (97/98) Accurately ripped
11 | (97/98) Accurately ripped
12 | (97/98) Accurately ripped
13 | (97/98) Accurately ripped
14 | (97/98) Accurately ripped
15 | (97/98) Accurately ripped
16 | (97/98) Accurately ripped
17 | (97/98) Accurately ripped
18 | (97/98) Accurately ripped
19 | (96/98) Accurately ripped
20 | (95/98) Accurately ripped
21 | (96/98) Accurately ripped
22 | (96/98) Accurately ripped
23 | (96/98) Accurately ripped
24 | (96/98) Accurately ripped
25 | (96/98) Accurately ripped
26 | (96/98) Accurately ripped
27 | (96/98) Accurately ripped
28 | (94/98) Accurately ripped


==== Log checksum 9BE0D2AC3A314CFEDEAF6DA67E33DE9C43371CE22BDE018A27C05DE9A175DCC4 ====

Nikolaus Harnoncourt, Wiener Philharmoniker - Mozart: Le nozze di Figaro (2007)

Thanks to the original releaser