Subcategories

Nina Simone Live at Montreux 1976 (2006) [DVD9]

Posted By: juanchito
Nina Simone Live at Montreux 1976 (2006) [DVD9]

Nina Simone Live at Montreux 1976 (2006)
DVD9 | PAL 720x576 (4:3) 25.00fps 2.91Mbps | 7.45 GB
Audio: Dolby AC3 48000Hz 6ch 448Kbps
Jazz, Funk, Blues | Length: 01:51:00


Nina Simone was one of the great female vocalists of the 20th Century. She was equally at home singing jazz, blues, soul, gospel or pure pop. Hugely prolific throughout the fifties, sixties and seventies, she recorded only rarely in her later career, but remained a major live performer until well into the nineties when, becoming increasingly frail, she retired to France where she died in 2003 at the age of 70.

Nina Simone made four appearances at the Montreux Festival between 1968 and 1990. This DVD features the whole performance from 1976 as the main feature and is supplemented by bonus features of two tracks from her concert in 1987 and four from her final show in 1990.

This is the definitive Nina Simone Live At Montreux DVD.

Nina Simone Live at Montreux 1976 (2006) [DVD9]

Nina Simone Live at Montreux 1976 (2006) [DVD9]

Nina Simone Live at Montreux 1976 (2006) [DVD9]

Nina Simone Live at Montreux 1976 (2006) [DVD9]



Tracklisting:
1976
1. Little Girl Blue
2. Backlash Blues
3. Be My Husband
4. I Wish I Knew (How It Would Feel to be Free)
5. Stars / Feelings
6. African Mailman

Bonus Tracks
1987
7. Someone to Watch Over Me
8. My Baby Just Cares For Me

1990
9. I Loves You Porgy
10. Liberian Calypso
11. Four Women / Mississippi Goddam
12. Ne Me Quitte Pas (Don't Leave Me)

General
Complete name : A:\Roberto Cumbreta\NINA SIMONE - Live at Montreux 1976\VIDEO_TS\VIDEO_TS.BUP
Format : DVD Video
Format profile : Menu
File size : 12.0 KiB
Overall bit rate mode : Variable
FileExtension_Invalid : ifo

Video
ID : 224 (0xE0)
Format : MPEG Video
Format version : Version 2
Bit rate mode : Variable
Width : 720 pixels
Height : 576 pixels
Display aspect ratio : 4:3
Frame rate : 25.000 FPS
Standard : PAL
Compression mode : Lossy

Text
Format : RLE
Format/Info : Run-length encoding
Bit depth : 2 bits

General
Complete name : A:\Roberto Cumbreta\NINA SIMONE - Live at Montreux 1976\VIDEO_TS\VIDEO_TS.IFO
Format : DVD Video
Format profile : Menu
File size : 12.0 KiB
Overall bit rate mode : Variable

Video
ID : 224 (0xE0)
Format : MPEG Video
Format version : Version 2
Bit rate mode : Variable
Width : 720 pixels
Height : 576 pixels
Display aspect ratio : 4:3
Frame rate : 25.000 FPS
Standard : PAL
Compression mode : Lossy

Text
Format : RLE
Format/Info : Run-length encoding
Bit depth : 2 bits

General
Complete name : A:\Roberto Cumbreta\NINA SIMONE - Live at Montreux 1976\VIDEO_TS\VIDEO_TS.VOB
Format : MPEG-PS
File size : 12.0 KiB
Duration : 40 ms
Overall bit rate : 2 458 kb/s

Video
ID : 224 (0xE0)
Format : MPEG Video
Format version : Version 2
Format profile : Main@Main
Format settings : CustomMatrix
Format settings, BVOP : No
Format settings, Matrix : Custom
Duration : 40 ms
Bit rate mode : Constant
Maximum bit rate : 8 000 kb/s
Width : 720 pixels
Height : 576 pixels
Display aspect ratio : 4:3
Frame rate : 25.000 FPS
Standard : PAL
Color space : YUV
Chroma subsampling : 4:2:0
Bit depth : 8 bits
Scan type : Progressive
Scan order : Top Field First
Compression mode : Lossy
Time code of first frame : 00:00:00:00
Time code source : Group of pictures header

Text
ID : 189 (0xBD)-32 (0x20)
Format : RLE
Format/Info : Run-length encoding
Muxing mode : DVD-Video

Menu

General
Complete name : A:\Roberto Cumbreta\NINA SIMONE - Live at Montreux 1976\VIDEO_TS\VTS_01_0.BUP
Format : DVD Video
Format profile : Program
File size : 78.0 KiB
Duration : 1 h 12 min
Overall bit rate mode : Variable
Overall bit rate : 148 b/s
FileExtension_Invalid : ifo

Video
ID : 224 (0xE0)
Format : MPEG Video
Format version : Version 2
Duration : 1 h 12 min
Bit rate mode : Variable
Width : 720 pixels
Height : 576 pixels
Display aspect ratio : 4:3
Frame rate : 25.000 FPS
Standard : PAL
Compression mode : Lossy

Audio #1
ID : 0 (0x0)
Format : PCM
Duration : 1 h 12 min
Channel(s) : 2 channels
Sampling rate : 48.0 kHz
Language : English

Audio #2
ID : 129 (0x81)
Format : AC-3
Format/Info : Audio Coding 3
Duration : 1 h 12 min
Channel(s) : 6 channels
Sampling rate : 48.0 kHz
Compression mode : Lossy
Language : English

Audio #3
ID : 138 (0x8A)
Format : DTS
Format/Info : Digital Theater Systems
Duration : 1 h 12 min
Channel(s) : 6 channels
Sampling rate : 48.0 kHz
Language : English

Menu #1
Duration : 1 h 12 min
00:00:00.000 : Chapter 1
00:10:30.120 : Chapter 2
00:19:33.720 : Chapter 3
00:24:03.360 : Chapter 4
00:30:16.240 : Chapter 5
00:56:58.160 : Chapter 6
01:12:02.000 : Chapter 7
List (Audio) : 0 / 1 / 2

Menu #2
Duration : 43 min 8 s
00:00:00.000 : Chapter 1
00:00:29.000 : Chapter 2
00:00:36.600 : Chapter 3
00:00:42.000 : Chapter 4
00:00:48.520 : Chapter 5
00:01:36.520 : Chapter 6
00:02:07.520 : Chapter 7
List (Audio) : 0 / 1 / 2

General
Complete name : A:\Roberto Cumbreta\NINA SIMONE - Live at Montreux 1976\VIDEO_TS\VTS_01_0.IFO
Format : DVD Video
Format profile : Program
File size : 78.0 KiB
Duration : 1 h 12 min
Overall bit rate mode : Variable
Overall bit rate : 148 b/s

Video
ID : 224 (0xE0)
Format : MPEG Video
Format version : Version 2
Duration : 1 h 12 min
Bit rate mode : Variable
Width : 720 pixels
Height : 576 pixels
Display aspect ratio : 4:3
Frame rate : 25.000 FPS
Standard : PAL
Compression mode : Lossy

Audio #1
ID : 0 (0x0)
Format : PCM
Duration : 1 h 12 min
Channel(s) : 2 channels
Sampling rate : 48.0 kHz
Language : English

Audio #2
ID : 129 (0x81)
Format : AC-3
Format/Info : Audio Coding 3
Duration : 1 h 12 min
Channel(s) : 6 channels
Sampling rate : 48.0 kHz
Compression mode : Lossy
Language : English

Audio #3
ID : 138 (0x8A)
Format : DTS
Format/Info : Digital Theater Systems
Duration : 1 h 12 min
Channel(s) : 6 channels
Sampling rate : 48.0 kHz
Language : English

Menu #1
Duration : 1 h 12 min
00:00:00.000 : Chapter 1
00:10:30.120 : Chapter 2
00:19:33.720 : Chapter 3
00:24:03.360 : Chapter 4
00:30:16.240 : Chapter 5
00:56:58.160 : Chapter 6
01:12:02.000 : Chapter 7
List (Audio) : 0 / 1 / 2

Menu #2
Duration : 43 min 8 s
00:00:00.000 : Chapter 1
00:00:29.000 : Chapter 2
00:00:36.600 : Chapter 3
00:00:42.000 : Chapter 4
00:00:48.520 : Chapter 5
00:01:36.520 : Chapter 6
00:02:07.520 : Chapter 7
List (Audio) : 0 / 1 / 2

General
Complete name : A:\Roberto Cumbreta\NINA SIMONE - Live at Montreux 1976\VIDEO_TS\VTS_01_0.VOB
Format : MPEG-PS
File size : 170 MiB
Duration : 2 s 600 ms
Overall bit rate mode : Variable
Overall bit rate : 548 Mb/s

Video
ID : 224 (0xE0)
Format : MPEG Video
Format version : Version 2
Format profile : Main@Main
Format settings : BVOP
Format settings, BVOP : Yes
Format settings, Matrix : Default
Format settings, GOP : Variable
Duration : 2 s 600 ms
Bit rate mode : Variable
Bit rate : 535 Mb/s
Width : 720 pixels
Height : 576 pixels
Display aspect ratio : 4:3
Frame rate : 25.000 FPS
Standard : PAL
Color space : YUV
Chroma subsampling : 4:2:0
Bit depth : 8 bits
Compression mode : Lossy
Bits/(Pixel*Frame) : 51.612
Time code of first frame : 00:00:00:00
Time code source : Group of pictures header
Stream size : 166 MiB (98%)

Audio
ID : 189 (0xBD)-160 (0xA0)
Format : PCM
Format settings : Big / Signed
Muxing mode : DVD-Video
Duration : 2 s 553 ms
Bit rate mode : Constant
Bit rate : 1 536 kb/s
Channel(s) : 2 channels
Sampling rate : 48.0 kHz
Bit depth : 16 bits
Stream size : 479 KiB (0%)

Text
ID : 189 (0xBD)-32 (0x20)
Format : RLE
Format/Info : Run-length encoding
Muxing mode : DVD-Video

Menu

General
Complete name : A:\Roberto Cumbreta\NINA SIMONE - Live at Montreux 1976\VIDEO_TS\VTS_01_1.VOB
Format : MPEG-PS
File size : 1 024 MiB
Duration : 17 min 14 s
Overall bit rate mode : Variable
Overall bit rate : 8 304 kb/s

Video
ID : 224 (0xE0)
Format : MPEG Video
Format version : Version 2
Format profile : Main@Main
Format settings : BVOP
Format settings, BVOP : Yes
Format settings, Matrix : Default
Format settings, GOP : M=3, N=9
Format settings, picture structure : Frame
Duration : 17 min 14 s
Bit rate mode : Variable
Bit rate : 5 400 kb/s
Maximum bit rate : 9 800 kb/s
Width : 720 pixels
Height : 576 pixels
Display aspect ratio : 4:3
Frame rate : 25.000 FPS
Standard : PAL
Color space : YUV
Chroma subsampling : 4:2:0
Bit depth : 8 bits
Scan type : Interlaced
Scan order : Top Field First
Compression mode : Lossy
Bits/(Pixel*Frame) : 0.521
Time code of first frame : 09:59:58:00
Time code source : Group of pictures header
GOP, Open/Closed : Closed
Stream size : 666 MiB (65%)

Audio #1
ID : 189 (0xBD)-129 (0x81)
Format : AC-3
Format/Info : Audio Coding 3
Commercial name : Dolby Digital
Muxing mode : DVD-Video
Duration : 17 min 13 s
Bit rate mode : Constant
Bit rate : 448 kb/s
Channel(s) : 6 channels
Channel layout : L R C LFE Ls Rs
Sampling rate : 48.0 kHz
Frame rate : 31.250 FPS (1536 SPF)
Bit depth : 16 bits
Compression mode : Lossy
Stream size : 55.2 MiB (5%)
Service kind : Complete Main

Audio #2
ID : 189 (0xBD)-138 (0x8A)
Format : DTS
Format/Info : Digital Theater Systems
Muxing mode : DVD-Video
Duration : 17 min 13 s
Bit rate mode : Constant
Bit rate : 755 kb/s
Channel(s) : 6 channels
Channel layout : C L R Ls Rs LFE
Sampling rate : 48.0 kHz
Frame rate : 93.750 FPS (512 SPF)
Bit depth : 24 bits
Compression mode : Lossy
Stream size : 93.0 MiB (9%)

Audio #3
ID : 189 (0xBD)-160 (0xA0)
Format : PCM
Format settings : Big / Signed
Muxing mode : DVD-Video
Duration : 17 min 13 s
Bit rate mode : Constant
Bit rate : 1 536 kb/s
Channel(s) : 2 channels
Sampling rate : 48.0 kHz
Bit depth : 16 bits
Stream size : 189 MiB (18%)

Menu

General
Complete name : A:\Roberto Cumbreta\NINA SIMONE - Live at Montreux 1976\VIDEO_TS\VTS_01_2.VOB
Format : MPEG-PS
File size : 1 024 MiB
Duration : 15 min 49 s
Overall bit rate mode : Variable
Overall bit rate : 9 045 kb/s

Video
ID : 224 (0xE0)
Format : MPEG Video
Format version : Version 2
Format profile : Main@Main
Format settings : BVOP
Format settings, BVOP : Yes
Format settings, Matrix : Default
Format settings, GOP : M=3, N=9
Format settings, picture structure : Frame
Duration : 15 min 49 s
Bit rate mode : Variable
Bit rate : 6 127 kb/s
Maximum bit rate : 9 800 kb/s
Width : 720 pixels
Height : 576 pixels
Display aspect ratio : 4:3
Frame rate : 25.000 FPS
Standard : PAL
Color space : YUV
Chroma subsampling : 4:2:0
Bit depth : 8 bits
Scan type : Interlaced
Scan order : Top Field First
Compression mode : Lossy
Bits/(Pixel*Frame) : 0.591
Time code of first frame : 10:17:12:01
Time code source : Group of pictures header
GOP, Open/Closed : Closed
Stream size : 693 MiB (68%)

Audio #1
ID : 189 (0xBD)-129 (0x81)
Format : AC-3
Format/Info : Audio Coding 3
Commercial name : Dolby Digital
Muxing mode : DVD-Video
Duration : 15 min 49 s
Bit rate mode : Constant
Bit rate : 448 kb/s
Channel(s) : 6 channels
Channel layout : L R C LFE Ls Rs
Sampling rate : 48.0 kHz
Frame rate : 31.250 FPS (1536 SPF)
Bit depth : 16 bits
Compression mode : Lossy
Delay relative to video : -216 ms
Stream size : 50.7 MiB (5%)
Service kind : Complete Main

Audio #2
ID : 189 (0xBD)-138 (0x8A)
Format : DTS
Format/Info : Digital Theater Systems
Muxing mode : DVD-Video
Duration : 15 min 49 s
Bit rate mode : Constant
Bit rate : 755 kb/s
Channel(s) : 6 channels
Channel layout : C L R Ls Rs LFE
Sampling rate : 48.0 kHz
Frame rate : 93.750 FPS (512 SPF)
Bit depth : 24 bits
Compression mode : Lossy
Delay relative to video : -248 ms
Stream size : 85.4 MiB (8%)

Audio #3
ID : 189 (0xBD)-160 (0xA0)
Format : PCM
Format settings : Big / Signed
Muxing mode : DVD-Video
Duration : 15 min 49 s
Bit rate mode : Constant
Bit rate : 1 536 kb/s
Channel(s) : 2 channels
Sampling rate : 48.0 kHz
Bit depth : 16 bits
Delay relative to video : -275 ms
Stream size : 174 MiB (17%)

Menu

General
Complete name : A:\Roberto Cumbreta\NINA SIMONE - Live at Montreux 1976\VIDEO_TS\VTS_01_3.VOB
Format : MPEG-PS
File size : 1 024 MiB
Duration : 15 min 48 s
Overall bit rate mode : Variable
Overall bit rate : 9 055 kb/s

Video
ID : 224 (0xE0)
Format : MPEG Video
Format version : Version 2
Format profile : Main@Main
Format settings : BVOP
Format settings, BVOP : Yes
Format settings, Matrix : Default
Format settings, GOP : M=3, N=9
Format settings, picture structure : Frame
Duration : 15 min 48 s
Bit rate mode : Variable
Bit rate : 6 137 kb/s
Maximum bit rate : 9 800 kb/s
Width : 720 pixels
Height : 576 pixels
Display aspect ratio : 4:3
Frame rate : 25.000 FPS
Standard : PAL
Color space : YUV
Chroma subsampling : 4:2:0
Bit depth : 8 bits
Scan type : Interlaced
Scan order : Top Field First
Compression mode : Lossy
Bits/(Pixel*Frame) : 0.592
Time code of first frame : 10:33:01:07
Time code source : Group of pictures header
GOP, Open/Closed : Closed
Stream size : 694 MiB (68%)

Audio #1
ID : 189 (0xBD)-129 (0x81)
Format : AC-3
Format/Info : Audio Coding 3
Commercial name : Dolby Digital
Muxing mode : DVD-Video
Duration : 15 min 48 s
Bit rate mode : Constant
Bit rate : 448 kb/s
Channel(s) : 6 channels
Channel layout : L R C LFE Ls Rs
Sampling rate : 48.0 kHz
Frame rate : 31.250 FPS (1536 SPF)
Bit depth : 16 bits
Compression mode : Lossy
Delay relative to video : -176 ms
Stream size : 50.6 MiB (5%)
Service kind : Complete Main

Audio #2
ID : 189 (0xBD)-138 (0x8A)
Format : DTS
Format/Info : Digital Theater Systems
Muxing mode : DVD-Video
Duration : 15 min 48 s
Bit rate mode : Constant
Bit rate : 755 kb/s
Channel(s) : 6 channels
Channel layout : C L R Ls Rs LFE
Sampling rate : 48.0 kHz
Frame rate : 93.750 FPS (512 SPF)
Bit depth : 24 bits
Compression mode : Lossy
Delay relative to video : -240 ms
Stream size : 85.3 MiB (8%)

Audio #3
ID : 189 (0xBD)-160 (0xA0)
Format : PCM
Format settings : Big / Signed
Muxing mode : DVD-Video
Duration : 15 min 48 s
Bit rate mode : Constant
Bit rate : 1 536 kb/s
Channel(s) : 2 channels
Sampling rate : 48.0 kHz
Bit depth : 16 bits
Delay relative to video : -268 ms
Stream size : 174 MiB (17%)

Menu

General
Complete name : A:\Roberto Cumbreta\NINA SIMONE - Live at Montreux 1976\VIDEO_TS\VTS_01_4.VOB
Format : MPEG-PS
File size : 1 024 MiB
Duration : 15 min 51 s
Overall bit rate mode : Variable
Overall bit rate : 9 032 kb/s

Video
ID : 224 (0xE0)
Format : MPEG Video
Format version : Version 2
Format profile : Main@Main
Format settings : BVOP
Format settings, BVOP : Yes
Format settings, Matrix : Default
Format settings, GOP : M=3, N=9
Format settings, picture structure : Frame
Duration : 15 min 51 s
Bit rate mode : Variable
Bit rate : 6 114 kb/s
Maximum bit rate : 9 800 kb/s
Width : 720 pixels
Height : 576 pixels
Display aspect ratio : 4:3
Frame rate : 25.000 FPS
Standard : PAL
Color space : YUV
Chroma subsampling : 4:2:0
Bit depth : 8 bits
Scan type : Interlaced
Scan order : Top Field First
Compression mode : Lossy
Bits/(Pixel*Frame) : 0.590
Time code of first frame : 10:48:49:11
Time code source : Group of pictures header
GOP, Open/Closed : Closed
Stream size : 693 MiB (68%)

Audio #1
ID : 189 (0xBD)-129 (0x81)
Format : AC-3
Format/Info : Audio Coding 3
Commercial name : Dolby Digital
Muxing mode : DVD-Video
Duration : 15 min 50 s
Bit rate mode : Constant
Bit rate : 448 kb/s
Channel(s) : 6 channels
Channel layout : L R C LFE Ls Rs
Sampling rate : 48.0 kHz
Frame rate : 31.250 FPS (1536 SPF)
Bit depth : 16 bits
Compression mode : Lossy
Delay relative to video : -208 ms
Stream size : 50.8 MiB (5%)
Service kind : Complete Main

Audio #2
ID : 189 (0xBD)-138 (0x8A)
Format : DTS
Format/Info : Digital Theater Systems
Muxing mode : DVD-Video
Duration : 15 min 50 s
Bit rate mode : Constant
Bit rate : 755 kb/s
Channel(s) : 6 channels
Channel layout : C L R Ls Rs LFE
Sampling rate : 48.0 kHz
Frame rate : 93.750 FPS (512 SPF)
Bit depth : 24 bits
Compression mode : Lossy
Delay relative to video : -240 ms
Stream size : 85.5 MiB (8%)

Audio #3
ID : 189 (0xBD)-160 (0xA0)
Format : PCM
Format settings : Big / Signed
Muxing mode : DVD-Video
Duration : 15 min 50 s
Bit rate mode : Constant
Bit rate : 1 536 kb/s
Channel(s) : 2 channels
Sampling rate : 48.0 kHz
Bit depth : 16 bits
Delay relative to video : -277 ms
Stream size : 174 MiB (17%)

Menu

General
Complete name : A:\Roberto Cumbreta\NINA SIMONE - Live at Montreux 1976\VIDEO_TS\VTS_01_5.VOB
Format : MPEG-PS
File size : 1 024 MiB
Overall bit rate mode : Variable

Video
ID : 224 (0xE0)
Format : MPEG Video
Format version : Version 2
Format profile : Main@Main
Format settings : BVOP
Format settings, BVOP : Yes
Format settings, Matrix : Default
Format settings, GOP : M=3, N=9
Format settings, picture structure : Frame
Bit rate mode : Variable
Maximum bit rate : 9 800 kb/s
Width : 720 pixels
Height : 576 pixels
Display aspect ratio : 4:3
Frame rate : 25.000 FPS
Standard : PAL
Color space : YUV
Chroma subsampling : 4:2:0
Bit depth : 8 bits
Scan type : Interlaced
Scan order : Top Field First
Compression mode : Lossy
Time code of first frame : 11:04:40:11
Time code source : Group of pictures header
GOP, Open/Closed : Closed

Audio #1
ID : 189 (0xBD)-129 (0x81)
Format : AC-3
Format/Info : Audio Coding 3
Commercial name : Dolby Digital
Muxing mode : DVD-Video
Bit rate mode : Constant
Bit rate : 448 kb/s
Channel(s) : 6 channels
Channel layout : L R C LFE Ls Rs
Sampling rate : 48.0 kHz
Frame rate : 31.250 FPS (1536 SPF)
Bit depth : 16 bits
Compression mode : Lossy
Delay relative to video : -200 ms
Service kind : Complete Main

Audio #2
ID : 189 (0xBD)-138 (0x8A)
Format : DTS
Format/Info : Digital Theater Systems
Muxing mode : DVD-Video
Bit rate mode : Constant
Bit rate : 755 kb/s
Channel(s) : 6 channels
Channel layout : C L R Ls Rs LFE
Sampling rate : 48.0 kHz
Frame rate : 93.750 FPS (512 SPF)
Bit depth : 24 bits
Compression mode : Lossy
Delay relative to video : -243 ms

Audio #3
ID : 189 (0xBD)-160 (0xA0)
Format : PCM
Format settings : Big / Signed
Muxing mode : DVD-Video
Bit rate mode : Constant
Bit rate : 1 536 kb/s
Channel(s) : 2 channels
Sampling rate : 48.0 kHz
Bit depth : 16 bits
Delay relative to video : -268 ms

Menu

General
Complete name : A:\Roberto Cumbreta\NINA SIMONE - Live at Montreux 1976\VIDEO_TS\VTS_01_6.VOB
Format : MPEG-PS
File size : 1 023 MiB
Duration : 16 min 37 s
Overall bit rate mode : Variable
Overall bit rate : 8 609 kb/s

Video
ID : 224 (0xE0)
Format : MPEG Video
Format version : Version 2
Format profile : Main@Main
Format settings : BVOP
Format settings, BVOP : Yes
Format settings, Matrix : Default
Format settings, GOP : M=3, N=9
Format settings, picture structure : Frame
Duration : 16 min 37 s
Bit rate mode : Variable
Bit rate : 5 699 kb/s
Maximum bit rate : 9 800 kb/s
Width : 720 pixels
Height : 576 pixels
Display aspect ratio : 4:3
Frame rate : 25.000 FPS
Standard : PAL
Color space : YUV
Chroma subsampling : 4:2:0
Bit depth : 8 bits
Scan type : Interlaced
Scan order : Top Field First
Compression mode : Lossy
Bits/(Pixel*Frame) : 0.550
Time code of first frame : 10:09:14:23
Time code source : Group of pictures header
GOP, Open/Closed : Closed
Stream size : 677 MiB (66%)

Audio #1
ID : 189 (0xBD)-129 (0x81)
Format : AC-3
Format/Info : Audio Coding 3
Commercial name : Dolby Digital
Muxing mode : DVD-Video
Duration : 16 min 37 s
Bit rate mode : Constant
Bit rate : 448 kb/s
Channel(s) : 6 channels
Channel layout : L R C LFE Ls Rs
Sampling rate : 48.0 kHz
Frame rate : 31.250 FPS (1536 SPF)
Bit depth : 16 bits
Compression mode : Lossy
Delay relative to video : -216 ms
Stream size : 53.2 MiB (5%)
Service kind : Complete Main

Audio #2
ID : 189 (0xBD)-138 (0x8A)
Format : DTS
Format/Info : Digital Theater Systems
Muxing mode : DVD-Video
Duration : 16 min 37 s
Bit rate mode : Constant
Bit rate : 755 kb/s
Channel(s) : 6 channels
Channel layout : C L R Ls Rs LFE
Sampling rate : 48.0 kHz
Frame rate : 93.750 FPS (512 SPF)
Bit depth : 24 bits
Compression mode : Lossy
Delay relative to video : -248 ms
Stream size : 89.7 MiB (9%)

Audio #3
ID : 189 (0xBD)-160 (0xA0)
Format : PCM
Format settings : Big / Signed
Muxing mode : DVD-Video
Duration : 16 min 37 s
Bit rate mode : Constant
Bit rate : 1 536 kb/s
Channel(s) : 2 channels
Sampling rate : 48.0 kHz
Bit depth : 16 bits
Delay relative to video : -275 ms
Stream size : 183 MiB (18%)

Menu

General
Complete name : A:\Roberto Cumbreta\NINA SIMONE - Live at Montreux 1976\VIDEO_TS\VTS_01_7.VOB
Format : MPEG-PS
File size : 1 024 MiB
Duration : 14 min 49 s
Overall bit rate mode : Variable
Overall bit rate : 9 662 kb/s

Video
ID : 224 (0xE0)
Format : MPEG Video
Format version : Version 2
Format profile : Main@Main
Format settings : BVOP
Format settings, BVOP : Yes
Format settings, Matrix : Default
Format settings, GOP : M=3, N=9
Format settings, picture structure : Frame
Duration : 14 min 49 s
Bit rate mode : Variable
Bit rate : 6 731 kb/s
Maximum bit rate : 9 800 kb/s
Width : 720 pixels
Height : 576 pixels
Display aspect ratio : 4:3
Frame rate : 25.000 FPS
Standard : PAL
Color space : YUV
Chroma subsampling : 4:2:0
Bit depth : 8 bits
Scan type : Interlaced
Scan order : Top Field First
Compression mode : Lossy
Bits/(Pixel*Frame) : 0.649
Time code of first frame : 10:25:51:24
Time code source : Group of pictures header
GOP, Open/Closed : Closed
Stream size : 713 MiB (70%)

Audio #1
ID : 189 (0xBD)-129 (0x81)
Format : AC-3
Format/Info : Audio Coding 3
Commercial name : Dolby Digital
Muxing mode : DVD-Video
Duration : 14 min 48 s
Bit rate mode : Constant
Bit rate : 448 kb/s
Channel(s) : 6 channels
Channel layout : L R C LFE Ls Rs
Sampling rate : 48.0 kHz
Frame rate : 31.250 FPS (1536 SPF)
Bit depth : 16 bits
Compression mode : Lossy
Delay relative to video : -168 ms
Stream size : 47.5 MiB (5%)
Service kind : Complete Main

Audio #2
ID : 189 (0xBD)-138 (0x8A)
Format : DTS
Format/Info : Digital Theater Systems
Muxing mode : DVD-Video
Duration : 14 min 49 s
Bit rate mode : Constant
Bit rate : 755 kb/s
Channel(s) : 6 channels
Channel layout : C L R Ls Rs LFE
Sampling rate : 48.0 kHz
Frame rate : 93.750 FPS (512 SPF)
Bit depth : 24 bits
Compression mode : Lossy
Delay relative to video : -253 ms
Stream size : 80.0 MiB (8%)

Audio #3
ID : 189 (0xBD)-160 (0xA0)
Format : PCM
Format settings : Big / Signed
Muxing mode : DVD-Video
Duration : 14 min 48 s
Bit rate mode : Constant
Bit rate : 1 536 kb/s
Channel(s) : 2 channels
Sampling rate : 48.0 kHz
Bit depth : 16 bits
Delay relative to video : -271 ms
Stream size : 163 MiB (16%)

Menu

General
Complete name : A:\Roberto Cumbreta\NINA SIMONE - Live at Montreux 1976\VIDEO_TS\VTS_01_8.VOB
Format : MPEG-PS
File size : 276 MiB
Duration : 4 min 7 s
Overall bit rate mode : Variable
Overall bit rate : 9 349 kb/s

Video
ID : 224 (0xE0)
Format : MPEG Video
Format version : Version 2
Format profile : Main@Main
Format settings : BVOP
Format settings, BVOP : Yes
Format settings, Matrix : Default
Format settings, GOP : M=3, N=9
Format settings, picture structure : Frame
Duration : 4 min 7 s
Bit rate mode : Variable
Bit rate : 6 425 kb/s
Maximum bit rate : 9 800 kb/s
Width : 720 pixels
Height : 576 pixels
Display aspect ratio : 4:3
Frame rate : 25.000 FPS
Standard : PAL
Color space : YUV
Chroma subsampling : 4:2:0
Bit depth : 8 bits
Scan type : Interlaced
Scan order : Top Field First
Compression mode : Lossy
Bits/(Pixel*Frame) : 0.620
Time code of first frame : 10:40:40:24
Time code source : Group of pictures header
GOP, Open/Closed : Closed
Stream size : 189 MiB (69%)

Audio #1
ID : 189 (0xBD)-129 (0x81)
Format : AC-3
Format/Info : Audio Coding 3
Commercial name : Dolby Digital
Muxing mode : DVD-Video
Duration : 4 min 7 s
Bit rate mode : Constant
Bit rate : 448 kb/s
Channel(s) : 6 channels
Channel layout : L R C LFE Ls Rs
Sampling rate : 48.0 kHz
Frame rate : 31.250 FPS (1536 SPF)
Bit depth : 16 bits
Compression mode : Lossy
Delay relative to video : -208 ms
Stream size : 13.2 MiB (5%)
Service kind : Complete Main

Audio #2
ID : 189 (0xBD)-138 (0x8A)
Format : DTS
Format/Info : Digital Theater Systems
Muxing mode : DVD-Video
Duration : 4 min 7 s
Bit rate mode : Constant
Bit rate : 755 kb/s
Channel(s) : 6 channels
Channel layout : C L R Ls Rs LFE
Sampling rate : 48.0 kHz
Frame rate : 93.750 FPS (512 SPF)
Bit depth : 24 bits
Compression mode : Lossy
Delay relative to video : -251 ms
Stream size : 22.2 MiB (8%)

Audio #3
ID : 189 (0xBD)-160 (0xA0)
Format : PCM
Format settings : Big / Signed
Muxing mode : DVD-Video
Duration : 4 min 7 s
Bit rate mode : Constant
Bit rate : 1 536 kb/s
Channel(s) : 2 channels
Sampling rate : 48.0 kHz
Bit depth : 16 bits
Delay relative to video : -273 ms
Stream size : 45.3 MiB (16%)

Menu

General
Complete name : A:\Roberto Cumbreta\NINA SIMONE - Live at Montreux 1976\VIDEO_TS\VTS_02_0.BUP
Format : DVD Video
Format profile : Program
File size : 18.0 KiB
Duration : 18 s 840 ms
Overall bit rate mode : Variable
Overall bit rate : 7 827 b/s
FileExtension_Invalid : ifo

Video
ID : 224 (0xE0)
Format : MPEG Video
Format version : Version 2
Duration : 18 s 840 ms
Bit rate mode : Variable
Width : 720 pixels
Height : 576 pixels
Display aspect ratio : 4:3
Frame rate : 25.000 FPS
Standard : PAL
Compression mode : Lossy

Audio
ID : 0 (0x0)
Format : PCM
Duration : 18 s 840 ms
Channel(s) : 2 channels
Sampling rate : 48.0 kHz
Language : English

Menu
Duration : 18 s 840 ms
00:00:00.000 : Chapter 1
00:00:10.000 : Chapter 2
List (Audio) : 0

General
Complete name : A:\Roberto Cumbreta\NINA SIMONE - Live at Montreux 1976\VIDEO_TS\VTS_02_0.IFO
Format : DVD Video
Format profile : Program
File size : 18.0 KiB
Duration : 18 s 840 ms
Overall bit rate mode : Variable
Overall bit rate : 7 827 b/s

Video
ID : 224 (0xE0)
Format : MPEG Video
Format version : Version 2
Duration : 18 s 840 ms
Bit rate mode : Variable
Width : 720 pixels
Height : 576 pixels
Display aspect ratio : 4:3
Frame rate : 25.000 FPS
Standard : PAL
Compression mode : Lossy

Audio
ID : 0 (0x0)
Format : PCM
Duration : 18 s 840 ms
Channel(s) : 2 channels
Sampling rate : 48.0 kHz
Language : English

Menu
Duration : 18 s 840 ms
00:00:00.000 : Chapter 1
00:00:10.000 : Chapter 2
List (Audio) : 0

General
Complete name : A:\Roberto Cumbreta\NINA SIMONE - Live at Montreux 1976\VIDEO_TS\VTS_02_0.VOB
Format : MPEG-PS
File size : 12.0 KiB
Duration : 40 ms
Overall bit rate : 2 458 kb/s

Video
ID : 224 (0xE0)
Format : MPEG Video
Format version : Version 2
Format profile : Main@Main
Format settings : CustomMatrix
Format settings, BVOP : No
Format settings, Matrix : Custom
Duration : 40 ms
Bit rate mode : Constant
Maximum bit rate : 8 000 kb/s
Width : 720 pixels
Height : 576 pixels
Display aspect ratio : 4:3
Frame rate : 25.000 FPS
Standard : PAL
Color space : YUV
Chroma subsampling : 4:2:0
Bit depth : 8 bits
Scan type : Progressive
Scan order : Top Field First
Compression mode : Lossy
Time code of first frame : 00:00:00:00
Time code source : Group of pictures header

Text
ID : 189 (0xBD)-32 (0x20)
Format : RLE
Format/Info : Run-length encoding
Muxing mode : DVD-Video

Menu

General
Complete name : A:\Roberto Cumbreta\NINA SIMONE - Live at Montreux 1976\VIDEO_TS\VTS_02_1.VOB
Format : MPEG-PS
File size : 13.1 MiB
Duration : 8 s 840 ms
Overall bit rate mode : Variable
Overall bit rate : 12.5 Mb/s

Video
ID : 224 (0xE0)
Format : MPEG Video
Format version : Version 2
Format profile : Main@Main
Format settings : CustomMatrix / BVOP
Format settings, BVOP : Yes
Format settings, Matrix : Custom
Format settings, GOP : Variable
Format settings, picture structure : Frame
Duration : 8 s 840 ms
Bit rate mode : Variable
Bit rate : 10.7 Mb/s
Maximum bit rate : 9 800 kb/s
Width : 720 pixels
Height : 576 pixels
Display aspect ratio : 4:3
Frame rate : 25.000 FPS
Standard : PAL
Color space : YUV
Chroma subsampling : 4:2:0
Bit depth : 8 bits
Scan type : Interlaced
Scan order : Top Field First
Compression mode : Lossy
Bits/(Pixel*Frame) : 1.029
Time code of first frame : 01:00:00:00
Time code source : Group of pictures header
GOP, Open/Closed : Open
GOP, Open/Closed of first frame : Closed
Stream size : 11.2 MiB (86%)

Audio
ID : 189 (0xBD)-160 (0xA0)
Format : PCM
Format settings : Big / Signed
Muxing mode : DVD-Video
Duration : 8 s 796 ms
Bit rate mode : Constant
Bit rate : 1 536 kb/s
Channel(s) : 2 channels
Sampling rate : 48.0 kHz
Bit depth : 16 bits
Stream size : 1.61 MiB (12%)

Menu




Thanks to the original uploader