Subcategories

Nino Katamadze & Insight - Blue (2008)

Posted By: gribovar
Nino Katamadze & Insight - Blue (2008)

Nino Katamadze & Insight - Blue (2008)
EAC Rip | WavPack (image+.cue+log) - 262 MB | MP3 CBR 320 kbps (LAME 3.93) - 119 MB | Covers - 30 MB
Genre: Jazz Rock, Vocal Jazz | RAR 3% Rec. | Label: Мистерия Рекордс (MZ 429-2)

Described as a "Georgian Janis Joplin," Nino Katamadze, from Batumi, is one of Georgia's most renowned singers. Defining the exact style of Katamadze's music is difficult; Nino calls it "art jazz." She sings mostly about love, sometimes spontaneously composing songs onstage."Musical motifs appear in my head unpredictably," she explains. In 1999, Nino Katamadze founded her 4 piece band - Insight. Since then they have been performing across Georgia, in Moscow and in some European countries. Band’s repertoire includes a lot of originally arranged Georgian folk songs. The strong side of the band is Nino’s vocal and extraordinariness in both music and stage performance.
Tracklist:
01. Calm
02. Corridor
03. Ieli
04. Land of Flowers
05. Once In The Street
06. Sea Shore
07. Violets
08. Olei
09. Dance under Umbrella
10. Rain

Total time: 50:44

Exact Audio Copy V1.0 beta 1 from 15. November 2010

EAC extraction logfile from 23. January 2011, 18:26

Нино Катамадзе & Insight / Blue

Used drive : TSSTcorpCDDVDW TS-L633A Adapter: 1 ID: 0

Read mode : Secure
Utilize accurate stream : Yes
Defeat audio cache : Yes
Make use of C2 pointers : No

Read offset correction : 6
Overread into Lead-In and Lead-Out : No
Fill up missing offset samples with silence : Yes
Delete leading and trailing silent blocks : No
Null samples used in CRC calculations : Yes
Used interface : Native Win32 interface for Win NT & 2000

Used output format : User Defined Encoder
Selected bitrate : 1024 kBit/s
Quality : High
Add ID3 tag : No
Command line compressor : C:\Program Files\Exact Audio Copy\wavpack.exe
Additional command line options : -hlm %s


TOC of the extracted CD

Track | Start | Length | Start sector | End sector
––––––––––––––––––––––––––––-
1 | 0:00.00 | 5:55.32 | 0 | 26656
2 | 5:55.32 | 4:26.36 | 26657 | 46642
3 | 10:21.68 | 2:34.22 | 46643 | 58214
4 | 12:56.15 | 6:20.31 | 58215 | 86745
5 | 19:16.46 | 6:34.36 | 86746 | 116331
6 | 25:51.07 | 3:32.44 | 116332 | 132275
7 | 29:23.51 | 3:55.17 | 132276 | 149917
8 | 33:18.68 | 5:31.08 | 149918 | 174750
9 | 38:50.01 | 5:47.51 | 174751 | 200826
10 | 44:37.52 | 6:06.37 | 200827 | 228313


Range status and errors

Selected range

Filename C:\Nino Blue\Nino Katamadze & Insight - Blue.wav

Peak level 100.0 %
Extraction speed 0.2 X
Range quality 100.0 %
Test CRC E04472E5
Copy CRC E04472E5
Copy OK

No errors occurred


AccurateRip summary

Track 1 accurately ripped (confidence 9) [B0846204]
Track 2 accurately ripped (confidence 9) [2075E5DD]
Track 3 accurately ripped (confidence 9) [315F466D]
Track 4 accurately ripped (confidence 9) [98780307]
Track 5 accurately ripped (confidence 9) [5548C62A]
Track 6 accurately ripped (confidence 9) [97E4E688]
Track 7 accurately ripped (confidence 9) [A4F13D9C]
Track 8 accurately ripped (confidence 9) [DBE2CCFE]
Track 9 accurately ripped (confidence 9) [EBC2CBBB]
Track 10 accurately ripped (confidence 8) [E58DBBA8]

All tracks accurately ripped

End of status report

==== Log checksum C772A38E474BDAD783E2C96F647A1F42DE7129B099BE7C6CADF779DD706A2F39 ====

[CUETools log; Date: 18.08.2019 17:26:35; Version: 2.1.4]
[CTDB TOCID: 9LHGsqll1YAf.IhBm6DcsvDx.0Y-] found.
Track | CTDB Status
1 | (23/23) Accurately ripped
2 | (23/23) Accurately ripped
3 | (23/23) Accurately ripped
4 | (23/23) Accurately ripped
5 | (23/23) Accurately ripped
6 | (23/23) Accurately ripped
7 | (23/23) Accurately ripped
8 | (23/23) Accurately ripped
9 | (23/23) Accurately ripped
10 | (23/23) Accurately ripped
[AccurateRip ID: 0012a047-009529e1-860be40a] found.
Track [ CRC | V2 ] Status
01 [b0846204|23d86e37] (09+04/13) Accurately ripped
02 [2075e5dd|fef4e0f3] (09+04/13) Accurately ripped
03 [315f466d|de5b4579] (09+04/13) Accurately ripped
04 [98780307|aa6c7fff] (09+04/13) Accurately ripped
05 [5548c62a|38fc4c96] (09+04/13) Accurately ripped
06 [97e4e688|dc9a194f] (09+04/13) Accurately ripped
07 [a4f13d9c|b022088a] (09+04/13) Accurately ripped
08 [dbe2ccfe|5a2a382d] (09+04/13) Accurately ripped
09 [ebc2cbbb|323cfa9e] (09+04/13) Accurately ripped
10 [e58dbba8|180ab4d9] (08+04/12) Accurately ripped

Track Peak [ CRC32 ] [W/O NULL] [ LOG ]
– 100,0 [E04472E5] [8BE242AB] CRC32
01 100,0 [92AD4548] [3F3FBAD2]
02 99,2 [A2383333] [A827DFE1]
03 60,5 [AF2A53E7] [4AED44DD]
04 99,9 [335B0EC0] [3FEB9C6E]
05 98,0 [D218C24D] [11FD9CFC]
06 98,1 [7402DC0E] [0C47A077]
07 68,7 [9DEB8481] [914F52B1]
08 98,1 [877815CB] [0DA92FF2]
09 85,9 [DDB84B72] [23ABAE00]
10 98,4 [C7AD5361] [B4F4BA57]

Thanks to triGada

See also:
Nino Katamadze & Insight - Red (2010)