Subcategories

Nino Katamadze & Insight - Red (2010)

Posted By: gribovar
Nino Katamadze & Insight - Red (2010)

Nino Katamadze & Insight - Red (2010)
EAC Rip | WavPack (image+.cue+log) - 335 MB | MP3 CBR 320 kbps (LAME 3.93) - 128 MB | Covers - 118 MB
Genre: Jazz Rock, Vocal Jazz | RAR 3% Rec. | Label: Мистерия Рекордс (MZ 487-9/DG)

Described as a "Georgian Janis Joplin," Nino Katamadze, from Batumi, is one of Georgia's most renowned singers. Defining the exact style of Katamadze's music is difficult; Nino calls it "art jazz." She sings mostly about love, sometimes spontaneously composing songs onstage."Musical motifs appear in my head unpredictably," she explains. In 1999, Nino Katamadze founded her 4 piece band - Insight. Since then they have been performing across Georgia, in Moscow and in some European countries. Band’s repertoire includes a lot of originally arranged Georgian folk songs. The strong side of the band is Nino’s vocal and extraordinariness in both music and stage performance.
Tracklist:
01. Way To Lo
02. Leo
03. Vaja
04. Springtime
05. Gypsy
06. The Road
07. Movaneba
08. Red
09. Autumn
10. Nikusha

Total time: 54:22

Exact Audio Copy V1.0 beta 1 from 15. November 2010

EAC extraction logfile from 21. January 2011, 23:20

Nino Katamadze & Insight / Red

Used drive : Optiarc DVD RW AD-7203S Adapter: 2 ID: 1

Read mode : Secure
Utilize accurate stream : Yes
Defeat audio cache : Yes
Make use of C2 pointers : No

Read offset correction : 48
Overread into Lead-In and Lead-Out : No
Fill up missing offset samples with silence : Yes
Delete leading and trailing silent blocks : No
Null samples used in CRC calculations : Yes
Used interface : Installed external ASPI interface

Used output format : User Defined Encoder
Selected bitrate : 1024 kBit/s
Quality : High
Add ID3 tag : No
Command line compressor : D:\Program Files\Exact Audio Copy\wavpack.exe
Additional command line options : -hlm %s


TOC of the extracted CD

Track | Start | Length | Start sector | End sector
––––––––––––––––––––––––––––-
1 | 0:00.00 | 4:22.60 | 0 | 19709
2 | 4:22.60 | 4:38.53 | 19710 | 40612
3 | 9:01.38 | 5:12.23 | 40613 | 64035
4 | 14:13.61 | 6:21.21 | 64036 | 92631
5 | 20:35.07 | 8:02.40 | 92632 | 128821
6 | 28:37.47 | 8:20.41 | 128822 | 166362
7 | 36:58.13 | 4:37.15 | 166363 | 187152
8 | 41:35.28 | 5:54.50 | 187153 | 213752
9 | 47:30.03 | 5:07.68 | 213753 | 236845
10 | 52:37.71 | 1:44.02 | 236846 | 244647


Range status and errors

Selected range

Filename H:\prepare\RED\Nino Katamadze & Insight - Red.wav

Peak level 99.4 %
Extraction speed 0.0 X
Range quality 100.0 %
Test CRC 95CDC7EF
Copy CRC 95CDC7EF
Copy OK

No errors occurred


AccurateRip summary

Track 1 accurately ripped (confidence 2) [5E8E8CDE]
Track 2 accurately ripped (confidence 2) [F29B4C11]
Track 3 accurately ripped (confidence 2) [7EC29978]
Track 4 accurately ripped (confidence 2) [9DC4830A]
Track 5 accurately ripped (confidence 2) [D3400027]
Track 6 accurately ripped (confidence 2) [16AC2580]
Track 7 accurately ripped (confidence 2) [610E455F]
Track 8 accurately ripped (confidence 2) [F6E28248]
Track 9 accurately ripped (confidence 2) [29091D9B]
Track 10 accurately ripped (confidence 2) [80F09520]

All tracks accurately ripped

End of status report

==== Log checksum DA410E2646193B3B21ED412E8FE4B1D0E7313B801130AA28900BA49EF79DC170 ====

[CUETools log; Date: 13.08.2019 18:40:03; Version: 2.1.4]
[CTDB TOCID: VS9FLmktLaRVwp62kiIhiS65E0c-] found.
Track | CTDB Status
1 | (16/16) Accurately ripped
2 | (16/16) Accurately ripped
3 | (16/16) Accurately ripped
4 | (16/16) Accurately ripped
5 | (16/16) Accurately ripped
6 | (16/16) Accurately ripped
7 | (16/16) Accurately ripped
8 | (16/16) Accurately ripped
9 | (16/16) Accurately ripped
10 | (16/16) Accurately ripped
[AccurateRip ID: 00154790-00ac6742-8a0cbd0a] found.
Track [ CRC | V2 ] Status
01 [5e8e8cde|f5140a98] (04+06/13) Accurately ripped
02 [f29b4c11|72f9555d] (04+06/13) Accurately ripped
03 [7ec29978|62bfad98] (04+06/14) Accurately ripped
04 [9dc4830a|9487b827] (04+06/13) Accurately ripped
05 [d3400027|ca7322b4] (04+06/13) Accurately ripped
06 [16ac2580|04ddeb10] (04+06/12) Accurately ripped
07 [610e455f|ee77f595] (04+06/12) Accurately ripped
08 [f6e28248|81101d59] (04+06/12) Accurately ripped
09 [29091d9b|037c189a] (04+06/13) Accurately ripped
10 [80f09520|24195b8b] (04+06/12) Accurately ripped
Offsetted by 500:
01 [34c43d06] (00/13) No match (V2 was not tested)
02 [6d5c4295] (00/13) No match (V2 was not tested)
03 [18972240] (00/14) No match (V2 was not tested)
04 [092d39c2] (00/13) No match (V2 was not tested)
05 [8c8e228b] (00/13) No match (V2 was not tested)
06 [709eaab0] (00/12) No match (V2 was not tested)
07 [a3367f93] (00/12) No match (V2 was not tested)
08 [3b43a2b4] (00/12) No match (V2 was not tested)
09 [b874cf1b] (00/13) No match (V2 was not tested)
10 [cb53be80] (00/12) No match (V2 was not tested)

Track Peak [ CRC32 ] [W/O NULL] [ LOG ]
– 99,4 [95CDC7EF] [BD7640F8] CRC32
01 98,2 [417FEC5C] [F48FE651]
02 99,4 [D4AFC7C8] [08BA021C]
03 99,4 [AB5F2808] [312D77C0]
04 95,4 [ADCB13C3] [4D95CEEC]
05 99,3 [FFA681D6] [9B57DD9C]
06 99,4 [BA13BBB3] [DDB07301]
07 82,4 [C3C299F9] [2844EC5D]
08 99,4 [7F99100F] [EB6EE0CC]
09 97,9 [F55E9F44] [21A9D550]
10 29,4 [029AB3CD] [9469A135]

Thanks to triGada