Subcategories

Noir Désir - Soyons Désinvoltes/ N'Ayons L'Air De Rien (2012) (limited edition)

Posted By: penseur
Noir Désir - Soyons Désinvoltes/ N'Ayons L'Air De Rien (2012) (limited edition)

Noir Désir - Soyons Désinvoltes/ N'Ayons L'Air De Rien (2012) (limited edition)
EAC with AccurateRip | APE (tracks), CUE, LOG - 547 + 550 Mb | MP3 320 Kbps VBR - 181 + 168 Mb
DVD ISO - 7,68 Gb | type: DVD-9 | region: all zone | video: PAL | audio: Linear PCM (2 channels) | artworks - 178 Mb
Genres: Pop/ Rock International - Styles: Alternative Rock, Euro-Pop French Rock, French Western, European Traditions | Released: February 27, 2012 | RAR 10% Rec. | nitroflare.com

"Compilation-portrait of "Noir Desir", a former french rock band from Bordeaux, that was very popular during the 1980s, 1990s and early 2000s, with two platinum and three gold albums in France The standard members of the band were Bertrand Cantat (vocals, guitar), Serge Teyssot-Gay (guitar), Jean-Paul Roy (bass guitar) and Denis Barthe (drums) The first CD is a "best-of" with all the most popular hits of the band and the second CD contains rarities, reprises, remixes and flip-sides, most of them not found in any official studio album Enjoy a great compilation album from one of the best french rock bands ever.

Released a year after drummer Denis Barthe officially announced their split, Soyons Désinvoltes, N'Ayons l'Air de Rien is the first official compilation from influential French rock outfit Noir Désir since 2001's En Route Pour la Joie. The collection includes material from 1987 debut Ou Veux-Tu Que J'Regarde ("Toujours Etre Ailleurs") right up to 2001 swan song Des Visages des Figures ("A l'Envers a L'Endroit"), including their breakthrough single "Aux Sombres Heros de l'Amer," Italian number one single "Le Vent Nous Portera," and a live performance of "Tostaky" recorded at the Vieilles Charrues."

Label: Barclay/ Ais / Blue Wrasse
Catalog #: 278 770-0
(see: repertory "more" for many more informations)

Links
Official website
Official website
Official label website
unofficial website
amazon.fr (samples)

Noir Désir - Soyons Désinvoltes/ N'Ayons L'Air De Rien (2012) (limited edition)

CD.I Soyons Désinvoltes
1 Fin De Siècle 05:35
2 En Route Pour La Joie 03:26
3 Ici Paris 03:37
4 L'Homme Pressé 03:46
5 Comme Elle Vient 02:25
6 À L'Envers, À L'Endroit 04:08
7 À L'Arrière Des Taxis 03:10
8 Toujours Être Ailleurs 04:33
9 Aux Sombres Héros De L'Amer 02:57
10 Un Jour En France 03:13
11 Marlène 03:03
12 Le Vent Nous Portera 04:49
13 À Ton Étoile 04:23
14 Lolita Nie En Bloc 03:30
15 Tostaky (Le Continent) edit 05:14
16 Le Fleuve 03:50
17 Lost 03:23
18 One Trip/ One Noise 04:12
Length:1:09:36 mn

CD.II Soyons Désinvoltes
1 Back To You 04:02
2 L'Iditenté 04:26
3 I Want You (She'S So Heavy) 04:18
4 21st Century Schizoid Man (live) 05:44
5 Bis Baby Boum Boum 05:07
6 Là-Bas (Original Motion Picture Soundtrack "Bernie") 02:48
7 Ces Gens-Là 05:13
8 Des Armes 02:48
9 À Ton Etoile (Yann Tiersen Mix) 04:06
10 Volontaire 03:24
11 Son Style 3 03:22
12 Les Écorchés (Sloy Mix) 03:57
13 Le Roi 05:04
14 Oublié (Replicant Mix) 03:39
15 Aucun Express 04:01
16 Song For J.L.P. 02:24
17 Working Class Hero (live) 03:50
18 Helter Skelter (live) 09:07
Length: 1:17:58 mn

Noir Désir - Soyons Désinvoltes/ N'Ayons L'Air De Rien (2012) (limited edition)


Exact Audio Copy V1.0 beta 3 from 29. August 2011

EAC extraction logfile from 25. December 2014, 15:54

NOIR DESIR / Soyons désinvoltes, n'ayons l'air de rien

Used drive : HL-DT-STBDDVDRW CH08LS10 Adapter: 3 ID: 1

Read mode : Secure
Utilize accurate stream : Yes
Defeat audio cache : Yes
Make use of C2 pointers : No

Read offset correction : 667
Overread into Lead-In and Lead-Out : No
Fill up missing offset samples with silence : Yes
Delete leading and trailing silent blocks : No
Null samples used in CRC calculations : Yes
Used interface : Native Win32 interface for Win NT & 2000
Gap handling : Appended to previous track

Used output format : Internal WAV Routines
Sample format : 44.100 Hz; 16 Bit; Stereo


TOC of the extracted CD

Track | Start | Length | Start sector | End sector
––––––––––––––––––––––––––––-
1 | 0:00.00 | 5:37.14 | 0 | 25288
2 | 5:37.14 | 3:27.22 | 25289 | 40835
3 | 9:04.36 | 3:38.22 | 40836 | 57207
4 | 12:42.58 | 3:46.02 | 57208 | 74159
5 | 16:28.60 | 2:25.73 | 74160 | 85107
6 | 18:54.58 | 4:08.13 | 85108 | 103720
7 | 23:02.71 | 3:11.13 | 103721 | 118058
8 | 26:14.09 | 4:33.65 | 118059 | 138598
9 | 30:47.74 | 3:00.22 | 138599 | 152120
10 | 33:48.21 | 3:13.73 | 152121 | 166668
11 | 37:02.19 | 3:03.71 | 166669 | 180464
12 | 40:06.15 | 4:50.45 | 180465 | 202259
13 | 44:56.60 | 4:24.50 | 202260 | 222109
14 | 49:21.35 | 3:30.39 | 222110 | 237898
15 | 52:51.74 | 5:17.43 | 237899 | 261716
16 | 58:09.42 | 3:51.00 | 261717 | 279041
17 | 62:00.42 | 3:23.46 | 279042 | 294312
18 | 65:24.13 | 4:12.22 | 294313 | 313234


Track 1

Filename G:\NOIR DESIR Soyons Désinvoltes, N'Ayons L'Air De Rien (limited edition)\CD.I lossless\01 Fin de siècle.wav

Pre-gap length 0:00:02.00

Peak level 98.5 %
Extraction speed 1.2 X
Track quality 100.0 %
Test CRC 735CA63E
Copy CRC 735CA63E
Cannot be verified as accurate (confidence 26) [5774D3AB], AccurateRip returned [987F3996] (AR v2)
Copy OK

Track 2

Filename G:\NOIR DESIR Soyons Désinvoltes, N'Ayons L'Air De Rien (limited edition)\CD.I lossless\02 En route pour la joie.wav

Pre-gap length 0:00:02.00

Peak level 97.7 %
Extraction speed 1.3 X
Track quality 100.0 %
Test CRC 64CC847B
Copy CRC 64CC847B
Cannot be verified as accurate (confidence 26) [8EE2980F], AccurateRip returned [8A37C588] (AR v2)
Copy OK

Track 3

Filename G:\NOIR DESIR Soyons Désinvoltes, N'Ayons L'Air De Rien (limited edition)\CD.I lossless\03 Ici Paris.wav

Pre-gap length 0:00:01.18

Peak level 97.7 %
Extraction speed 1.4 X
Track quality 100.0 %
Test CRC B058A1B1
Copy CRC B058A1B1
Cannot be verified as accurate (confidence 26) [AAD8C411], AccurateRip returned [93FC5CA0] (AR v2)
Copy OK

Track 4

Filename G:\NOIR DESIR Soyons Désinvoltes, N'Ayons L'Air De Rien (limited edition)\CD.I lossless\04 L’Homme pressé.wav

Pre-gap length 0:00:00.80

Peak level 98.6 %
Extraction speed 1.5 X
Track quality 100.0 %
Test CRC B9CA3AC4
Copy CRC B9CA3AC4
Cannot be verified as accurate (confidence 26) [0FAE9361], AccurateRip returned [DC466020] (AR v2)
Copy OK

Track 5

Filename G:\NOIR DESIR Soyons Désinvoltes, N'Ayons L'Air De Rien (limited edition)\CD.I lossless\05 Comme elle vient.wav

Peak level 98.6 %
Extraction speed 1.5 X
Track quality 100.0 %
Test CRC 95F755F7
Copy CRC 95F755F7
Cannot be verified as accurate (confidence 26) [9C2008F7], AccurateRip returned [14028054] (AR v2)
Copy OK

Track 6

Filename G:\NOIR DESIR Soyons Désinvoltes, N'Ayons L'Air De Rien (limited edition)\CD.I lossless\06 À l’envers à l’endroit.wav

Peak level 98.7 %
Extraction speed 1.7 X
Track quality 100.0 %
Test CRC 4C6C6EFB
Copy CRC 4C6C6EFB
Cannot be verified as accurate (confidence 26) [74C3C603], AccurateRip returned [8AA626EE] (AR v2)
Copy OK

Track 7

Filename G:\NOIR DESIR Soyons Désinvoltes, N'Ayons L'Air De Rien (limited edition)\CD.I lossless\07 À l’arrière des taxis.wav

Peak level 97.7 %
Extraction speed 1.7 X
Track quality 100.0 %
Test CRC 405696B1
Copy CRC 405696B1
Cannot be verified as accurate (confidence 26) [EA682D9A], AccurateRip returned [D1FB45D5] (AR v2)
Copy OK

Track 8

Filename G:\NOIR DESIR Soyons Désinvoltes, N'Ayons L'Air De Rien (limited edition)\CD.I lossless\08 Toujours être ailleurs.wav

Pre-gap length 0:00:00.34

Peak level 97.7 %
Extraction speed 1.7 X
Track quality 99.9 %
Test CRC 4C48CDDD
Copy CRC 4C48CDDD
Cannot be verified as accurate (confidence 26) [AD6852D5], AccurateRip returned [0F09179B] (AR v2)
Copy OK

Track 9

Filename G:\NOIR DESIR Soyons Désinvoltes, N'Ayons L'Air De Rien (limited edition)\CD.I lossless\09 Aux sombres héros de l’amer.wav

Peak level 97.7 %
Extraction speed 1.8 X
Track quality 100.0 %
Test CRC BECCC013
Copy CRC BECCC013
Cannot be verified as accurate (confidence 26) [045DFA1D], AccurateRip returned [0D33B150] (AR v2)
Copy OK

Track 10

Filename G:\NOIR DESIR Soyons Désinvoltes, N'Ayons L'Air De Rien (limited edition)\CD.I lossless\10 Un jour en France.wav

Pre-gap length 0:00:02.42

Peak level 97.7 %
Extraction speed 1.9 X
Track quality 100.0 %
Test CRC 821E9ED0
Copy CRC 821E9ED0
Cannot be verified as accurate (confidence 26) [CE21DDF9], AccurateRip returned [09362429] (AR v2)
Copy OK

Track 11

Filename G:\NOIR DESIR Soyons Désinvoltes, N'Ayons L'Air De Rien (limited edition)\CD.I lossless\11 Marlène.wav

Peak level 98.7 %
Extraction speed 1.7 X
Track quality 99.9 %
Test CRC 65F1F0A9
Copy CRC 65F1F0A9
Cannot be verified as accurate (confidence 26) [24803D09], AccurateRip returned [FE1B8CC7] (AR v2)
Copy OK

Track 12

Filename G:\NOIR DESIR Soyons Désinvoltes, N'Ayons L'Air De Rien (limited edition)\CD.I lossless\12 Le vent nous portera.wav

Peak level 98.8 %
Extraction speed 2.1 X
Track quality 100.0 %
Test CRC C14793DA
Copy CRC C14793DA
Cannot be verified as accurate (confidence 26) [F295CF22], AccurateRip returned [F719C2CF] (AR v2)
Copy OK

Track 13

Filename G:\NOIR DESIR Soyons Désinvoltes, N'Ayons L'Air De Rien (limited edition)\CD.I lossless\13 À ton étoile.wav

Pre-gap length 0:00:01.42

Peak level 97.7 %
Extraction speed 2.2 X
Track quality 100.0 %
Test CRC 99183F06
Copy CRC 99183F06
Cannot be verified as accurate (confidence 26) [128807B6], AccurateRip returned [58103405] (AR v2)
Copy OK

Track 14

Filename G:\NOIR DESIR Soyons Désinvoltes, N'Ayons L'Air De Rien (limited edition)\CD.I lossless\14 Lolita nie en bloc.wav

Pre-gap length 0:00:00.92

Peak level 98.7 %
Extraction speed 2.2 X
Track quality 100.0 %
Test CRC A9CBD960
Copy CRC A9CBD960
Cannot be verified as accurate (confidence 26) [B7124658], AccurateRip returned [9B28C3E2] (AR v2)
Copy OK

Track 15

Filename G:\NOIR DESIR Soyons Désinvoltes, N'Ayons L'Air De Rien (limited edition)\CD.I lossless\15 Tostaky (le continent) (edit).wav

Peak level 98.7 %
Extraction speed 2.4 X
Track quality 100.0 %
Test CRC F199739B
Copy CRC F199739B
Cannot be verified as accurate (confidence 25) [BA343736], AccurateRip returned [D3D5371D] (AR v2)
Copy OK

Track 16

Filename G:\NOIR DESIR Soyons Désinvoltes, N'Ayons L'Air De Rien (limited edition)\CD.I lossless\16 Le Fleuve.wav

Pre-gap length 0:00:02.58

Peak level 97.7 %
Extraction speed 2.4 X
Track quality 100.0 %
Test CRC 05178869
Copy CRC 05178869
Cannot be verified as accurate (confidence 26) [44E5EDEA], AccurateRip returned [C7FC5629] (AR v2)
Copy OK

Track 17

Filename G:\NOIR DESIR Soyons Désinvoltes, N'Ayons L'Air De Rien (limited edition)\CD.I lossless\17 Lost.wav

Pre-gap length 0:00:00.82

Peak level 98.8 %
Extraction speed 2.3 X
Track quality 100.0 %
Test CRC 0C64ADDA
Copy CRC 0C64ADDA
Cannot be verified as accurate (confidence 26) [79FA9ECC], AccurateRip returned [0C64E207] (AR v2)
Copy OK

Track 18

Filename G:\NOIR DESIR Soyons Désinvoltes, N'Ayons L'Air De Rien (limited edition)\CD.I lossless\18 One Trip , One Noise.wav

Peak level 98.6 %
Extraction speed 2.5 X
Track quality 100.0 %
Test CRC E9CE4891
Copy CRC E9CE4891
Cannot be verified as accurate (confidence 25) [BFC778D6], AccurateRip returned [00129260] (AR v2)
Copy OK


No tracks could be verified as accurate
You may have a different pressing from the one(s) in the database

No errors occurred

End of status report

–– CUETools DB Plugin V2.1.4

[CTDB TOCID: y4sDudczcBqaCJPfz7eozA4taB0-] found
Submit result: y4sDudczcBqaCJPfz7eozA4taB0- has been confirmed
Track | CTDB Status
1 | (35/35) Accurately ripped
2 | (35/35) Accurately ripped
3 | (35/35) Accurately ripped
4 | (35/35) Accurately ripped
5 | (35/35) Accurately ripped
6 | (34/35) Accurately ripped
7 | (35/35) Accurately ripped
8 | (35/35) Accurately ripped
9 | (35/35) Accurately ripped
10 | (35/35) Accurately ripped
11 | (35/35) Accurately ripped
12 | (35/35) Accurately ripped
13 | (35/35) Accurately ripped
14 | (35/35) Accurately ripped
15 | (35/35) Accurately ripped
16 | (35/35) Accurately ripped
17 | (35/35) Accurately ripped
18 | (35/35) Accurately ripped


==== Log checksum 456334B29063BD7E221EDA457BF265C3F88B18DC4BCC97C1F118675CD34BAD3F ====

Noir Désir - Soyons Désinvoltes/ N'Ayons L'Air De Rien (2012) (limited edition)


Exact Audio Copy V1.0 beta 3 from 29. August 2011

EAC extraction logfile from 25. December 2014, 17:30

NOIR DESIR / Soyons désinvoltes, n'ayons l'air de rien

Used drive : HL-DT-STBDDVDRW CH08LS10 Adapter: 3 ID: 1

Read mode : Secure
Utilize accurate stream : Yes
Defeat audio cache : Yes
Make use of C2 pointers : No

Read offset correction : 667
Overread into Lead-In and Lead-Out : No
Fill up missing offset samples with silence : Yes
Delete leading and trailing silent blocks : No
Null samples used in CRC calculations : Yes
Used interface : Native Win32 interface for Win NT & 2000
Gap handling : Appended to previous track

Used output format : Internal WAV Routines
Sample format : 44.100 Hz; 16 Bit; Stereo


TOC of the extracted CD

Track | Start | Length | Start sector | End sector
––––––––––––––––––––––––––––-
1 | 0:00.00 | 4:02.00 | 0 | 18149
2 | 4:02.00 | 4:26.16 | 18150 | 38115
3 | 8:28.16 | 4:19.72 | 38116 | 57612
4 | 12:48.13 | 5:47.62 | 57613 | 83699
5 | 18:36.00 | 5:09.25 | 83700 | 106899
6 | 23:45.25 | 2:50.09 | 106900 | 119658
7 | 26:35.34 | 5:15.30 | 119659 | 143313
8 | 31:50.64 | 2:50.13 | 143314 | 156076
9 | 34:41.02 | 4:09.53 | 156077 | 174804
10 | 38:50.55 | 3:26.15 | 174805 | 190269
11 | 42:16.70 | 3:23.03 | 190270 | 205497
12 | 45:39.73 | 3:59.02 | 205498 | 223424
13 | 49:39.00 | 5:06.61 | 223425 | 246435
14 | 54:45.61 | 3:41.64 | 246436 | 263074
15 | 58:27.50 | 4:04.41 | 263075 | 281415
16 | 62:32.16 | 2:26.10 | 281416 | 292375
17 | 64:58.26 | 3:53.01 | 292376 | 309851
18 | 68:51.27 | 9:07.34 | 309852 | 350910


Track 1

Filename G:\NOIR DESIR Soyons Désinvoltes, N'Ayons L'Air De Rien (limited edition)\CD.II lossless\01 Back to You.wav

Pre-gap length 0:00:02.00

Peak level 97.7 %
Extraction speed 1.1 X
Track quality 99.9 %
Test CRC 7D7D3DEC
Copy CRC 7D7D3DEC
Cannot be verified as accurate (confidence 16) [D01CEA08], AccurateRip returned [91ADD914] (AR v2)
Copy OK

Track 2

Filename G:\NOIR DESIR Soyons Désinvoltes, N'Ayons L'Air De Rien (limited edition)\CD.II lossless\02 L'Iditenté.wav

Peak level 84.1 %
Extraction speed 1.2 X
Track quality 99.9 %
Test CRC D595321E
Copy CRC D595321E
Cannot be verified as accurate (confidence 16) [FB1BD232], AccurateRip returned [1803AF13] (AR v2)
Copy OK

Track 3

Filename G:\NOIR DESIR Soyons Désinvoltes, N'Ayons L'Air De Rien (limited edition)\CD.II lossless\03 I Want You.wav

Pre-gap length 0:00:02.01

Peak level 97.7 %
Extraction speed 1.3 X
Track quality 99.9 %
Test CRC 71FEBE62
Copy CRC 71FEBE62
Cannot be verified as accurate (confidence 16) [46C6DA45], AccurateRip returned [8547F2DF] (AR v2)
Copy OK

Track 4

Filename G:\NOIR DESIR Soyons Désinvoltes, N'Ayons L'Air De Rien (limited edition)\CD.II lossless\04 21st Century Schizoid Man.wav

Pre-gap length 0:00:02.73

Peak level 98.3 %
Extraction speed 1.6 X
Track quality 100.0 %
Test CRC 4D3A96BB
Copy CRC 4D3A96BB
Cannot be verified as accurate (confidence 16) [05DD2EB3], AccurateRip returned [505EF12C] (AR v2)
Copy OK

Track 5

Filename G:\NOIR DESIR Soyons Désinvoltes, N'Ayons L'Air De Rien (limited edition)\CD.II lossless\05 Bis baby boum boum.wav

Pre-gap length 0:00:03.26

Peak level 99.1 %
Extraction speed 1.8 X
Track quality 100.0 %
Test CRC 1F719A13
Copy CRC 1F719A13
Cannot be verified as accurate (confidence 16) [2678DC6D], AccurateRip returned [AC714357] (AR v2)
Copy OK

Track 6

Filename G:\NOIR DESIR Soyons Désinvoltes, N'Ayons L'Air De Rien (limited edition)\CD.II lossless\06 Là-bas.wav

Pre-gap length 0:00:02.10

Peak level 97.7 %
Extraction speed 1.7 X
Track quality 100.0 %
Test CRC 6A1DBE31
Copy CRC 6A1DBE31
Cannot be verified as accurate (confidence 16) [2C276909], AccurateRip returned [9FC4EA69] (AR v2)
Copy OK

Track 7

Filename G:\NOIR DESIR Soyons Désinvoltes, N'Ayons L'Air De Rien (limited edition)\CD.II lossless\07 Ces gens-là.wav

Pre-gap length 0:00:02.12

Peak level 97.7 %
Extraction speed 1.7 X
Track quality 99.9 %
Test CRC 39CAB2F4
Copy CRC 39CAB2F4
Cannot be verified as accurate (confidence 16) [CF59EEDC], AccurateRip returned [ED714A30] (AR v2)
Copy OK

Track 8

Filename G:\NOIR DESIR Soyons Désinvoltes, N'Ayons L'Air De Rien (limited edition)\CD.II lossless\08 Des armes.wav

Pre-gap length 0:00:02.24

Peak level 98.2 %
Extraction speed 1.8 X
Track quality 100.0 %
Test CRC A665FDF4
Copy CRC A665FDF4
Cannot be verified as accurate (confidence 16) [4FD27E19], AccurateRip returned [47A52A03] (AR v2)
Copy OK

Track 9

Filename G:\NOIR DESIR Soyons Désinvoltes, N'Ayons L'Air De Rien (limited edition)\CD.II lossless\09 À ton étoile (Yann Tiersen remix).wav

Pre-gap length 0:00:02.41

Peak level 97.7 %
Extraction speed 2.0 X
Track quality 100.0 %
Test CRC 1E9413BB
Copy CRC 1E9413BB
Cannot be verified as accurate (confidence 16) [685F5652], AccurateRip returned [C7C7DFEE] (AR v2)
Copy OK

Track 10

Filename G:\NOIR DESIR Soyons Désinvoltes, N'Ayons L'Air De Rien (limited edition)\CD.II lossless\10 Volontaire.wav

Pre-gap length 0:00:02.70

Peak level 97.7 %
Extraction speed 1.8 X
Track quality 99.9 %
Test CRC EE15D750
Copy CRC EE15D750
Cannot be verified as accurate (confidence 16) [AA87680D], AccurateRip returned [6622A90B] (AR v2)
Copy OK

Track 11

Filename G:\NOIR DESIR Soyons Désinvoltes, N'Ayons L'Air De Rien (limited edition)\CD.II lossless\11 Son style 3.wav

Pre-gap length 0:00:02.04

Peak level 97.7 %
Extraction speed 2.1 X
Track quality 100.0 %
Test CRC 43E095EE
Copy CRC 43E095EE
Cannot be verified as accurate (confidence 16) [8AFC0A3E], AccurateRip returned [7547C2A6] (AR v2)
Copy OK

Track 12

Filename G:\NOIR DESIR Soyons Désinvoltes, N'Ayons L'Air De Rien (limited edition)\CD.II lossless\12 Les Écorchés.wav

Peak level 97.7 %
Extraction speed 1.9 X
Track quality 99.9 %
Test CRC 20CAADC1
Copy CRC 20CAADC1
Cannot be verified as accurate (confidence 16) [76FC9934], AccurateRip returned [98A09B91] (AR v2)
Copy OK

Track 13

Filename G:\NOIR DESIR Soyons Désinvoltes, N'Ayons L'Air De Rien (limited edition)\CD.II lossless\13 Le Roi.wav

Pre-gap length 0:00:02.02

Peak level 97.7 %
Extraction speed 2.3 X
Track quality 100.0 %
Test CRC 3479FE11
Copy CRC 3479FE11
Cannot be verified as accurate (confidence 16) [C06ADB92], AccurateRip returned [78FAA30A] (AR v2)
Copy OK

Track 14

Filename G:\NOIR DESIR Soyons Désinvoltes, N'Ayons L'Air De Rien (limited edition)\CD.II lossless\14 Oublié (remix).wav

Pre-gap length 0:00:02.40

Peak level 97.7 %
Extraction speed 2.3 X
Track quality 100.0 %
Test CRC BFC73740
Copy CRC BFC73740
Cannot be verified as accurate (confidence 16) [45E569CB], AccurateRip returned [EBFA1632] (AR v2)
Copy OK

Track 15

Filename G:\NOIR DESIR Soyons Désinvoltes, N'Ayons L'Air De Rien (limited edition)\CD.II lossless\15 Aucun express.wav

Pre-gap length 0:00:02.60

Peak level 97.7 %
Extraction speed 2.4 X
Track quality 100.0 %
Test CRC 842C5AE1
Copy CRC 842C5AE1
Cannot be verified as accurate (confidence 16) [89D77C01], AccurateRip returned [54DDE22D] (AR v2)
Copy OK

Track 16

Filename G:\NOIR DESIR Soyons Désinvoltes, N'Ayons L'Air De Rien (limited edition)\CD.II lossless\16 Song for JLP.wav

Pre-gap length 0:00:02.69

Peak level 97.7 %
Extraction speed 2.2 X
Track quality 100.0 %
Test CRC BD4CC06D
Copy CRC BD4CC06D
Cannot be verified as accurate (confidence 16) [9F6809C6], AccurateRip returned [C4DE78F4] (AR v2)
Copy OK

Track 17

Filename G:\NOIR DESIR Soyons Désinvoltes, N'Ayons L'Air De Rien (limited edition)\CD.II lossless\17 Working Class Hero.wav

Pre-gap length 0:00:02.00

Peak level 98.2 %
Extraction speed 2.2 X
Track quality 99.9 %
Test CRC 49274F57
Copy CRC 49274F57
Cannot be verified as accurate (confidence 16) [2DEE0A8B], AccurateRip returned [8CF4BFBD] (AR v2)
Copy OK

Track 18

Filename G:\NOIR DESIR Soyons Désinvoltes, N'Ayons L'Air De Rien (limited edition)\CD.II lossless\18 Helter Skelter.wav

Pre-gap length 0:00:02.04

Peak level 97.7 %
Extraction speed 2.6 X
Track quality 99.9 %
Test CRC 6355437F
Copy CRC 6355437F
Cannot be verified as accurate (confidence 16) [F5BD7087], AccurateRip returned [6E01F405] (AR v2)
Copy OK


No tracks could be verified as accurate
You may have a different pressing from the one(s) in the database

No errors occurred

End of status report

–– CUETools DB Plugin V2.1.4

[CTDB TOCID: zb4UXG6m6fpFaD7L7ULYrrmdTJU-] found
Submit result: zb4UXG6m6fpFaD7L7ULYrrmdTJU- has been confirmed
Track | CTDB Status
1 | (22/22) Accurately ripped
2 | (22/22) Accurately ripped
3 | (22/22) Accurately ripped
4 | (22/22) Accurately ripped
5 | (22/22) Accurately ripped
6 | (22/22) Accurately ripped
7 | (22/22) Accurately ripped
8 | (22/22) Accurately ripped
9 | (22/22) Accurately ripped
10 | (22/22) Accurately ripped
11 | (22/22) Accurately ripped
12 | (22/22) Accurately ripped
13 | (22/22) Accurately ripped
14 | (22/22) Accurately ripped
15 | (21/22) Accurately ripped
16 | (22/22) Accurately ripped
17 | (22/22) Accurately ripped
18 | (21/22) Accurately ripped


==== Log checksum C080281DDC621E350D76C0393862D84DF304409B2DA5D5EBD23A1F67457BE4B0 ====

Noir Désir - Soyons Désinvoltes/ N'Ayons L'Air De Rien (2012) (limited edition)

Noir Désir - Soyons Désinvoltes/ N'Ayons L'Air De Rien (2012) (limited edition)
Noir Désir - Soyons Désinvoltes/ N'Ayons L'Air De Rien (2012) (limited edition)
Noir Désir - Soyons Désinvoltes/ N'Ayons L'Air De Rien (2012) (limited edition)
Noir Désir - Soyons Désinvoltes/ N'Ayons L'Air De Rien (2012) (limited edition)
Noir Désir - Soyons Désinvoltes/ N'Ayons L'Air De Rien (2012) (limited edition)


Notes from this work:
- HQ quality of compressed files
(Best compression, authenticity verification, restored registering and tests of files)
RAR Recovery Record: 10% recovery
- HQ artworks files
- APE & MP3 are fully tagged

Important notes:
- Plus extra bonus material (with very special artworks add-ons)


Plz: All requested deleted files by PM. For all the rest here.
NO MIRRORS PLEASE. Thank you very much.
PASSWORD: www.AvaxHome.ru
[download nitroflare.com: CD.I, CD.II, DVD, artworks, infos and more]
CDI [APE (tracks)+cue+log/ MP3]
CD.II [APE (tracks)+cue+log/ MP3]
DVD [ISO + MDS file]
artworks (HQ jpg format) - more (infos, review… + extra material artworks)