Subcategories
Please register here if you want to download anything!

If domain in your address bar is different from the list below
PLEASE LEAVE THAT SITE IMMEDIATELY
❗IT'S A DANGEROUS FAKE❗



Spicy Magazines for Men! ;-)

Norah Jones - Day Breaks (2016) [Deluxe Edition]

Posted By: v3122
Norah Jones - Day Breaks (2016) [Deluxe Edition]

Norah Jones - Day Breaks (2016)
EAC | Flac(Image) + Cue + Log & MP3 CBR 320Kbps
Blue Note, 00602557136685 | ~ 354 or 151 Mb | Covers(600dpi, jpg) Included
Vocal Jazz, Easy Listening | 16 Tracks

Day Breaks is the sixth solo studio album by American singer and songwriter Norah Jones, released on October 7, 2016, through Blue Note Records. The album, which features nine new songs and three covers, sees Jones return to a piano-driven sound as heard on releases early in her career…

~ wiki
Norah Jones - Day Breaks (2016) [Deluxe Edition]


Norah Jones - Day Breaks (2016):

Norah Jones - Day Breaks (2016) [Deluxe Edition]

Tracklist:

01. Burn [4:39]
02. Tragedy [4:15]
03. Flipside [3:41]
04. It's A Wonderful Time For Love [3:54]
05. And Then There Was You [3:06]
06. Don't Be Denied [5:36]
07. Day Breaks [3:58]
08. Peace [5:15]
09. Once I Had A Laugh [3:13]
10. Sleeping Wild [3:08]
11. Carry On [2:48]
12. Fleurette Africaine [5:22]
13. Carry On (Live) [2:37]
14. Flipside (Live) [4:39]
15. Peace (Live) [4:12]
16. Don't Know Why (Live) [3:36]

Exact Audio Copy V1.1 from 23. June 2015

EAC extraction logfile from 7. October 2016, 10:42

Norah Jones / Day Breaks (Deluxe Edition)

Used drive : Pioneer BDR-209DBK Adapter: 0 ID: 0

Read mode : Secure
Utilize accurate stream : Yes
Defeat audio cache : Yes
Make use of C2 pointers : No

Read offset correction : 6
Overread into Lead-In and Lead-Out : No
Fill up missing offset samples with silence : Yes
Delete leading and trailing silent blocks : No
Null samples used in CRC calculations : Yes
Used interface : Installed external ASPI interface

Used output format : Internal WAV Routines
Sample format : 44.100 Hz; 16 Bit; Stereo


TOC of the extracted CD

Track | Start | Length | Start sector | End sector
––––––––––––––––––––––––––––-
1 | 0:00.00 | 4:38.67 | 0 | 20916
2 | 4:38.67 | 4:14.63 | 20917 | 40029
3 | 8:53.55 | 3:41.22 | 40030 | 56626
4 | 12:35.02 | 3:53.67 | 56627 | 74168
5 | 16:28.69 | 3:05.44 | 74169 | 88087
6 | 19:34.38 | 5:36.17 | 88088 | 113304
7 | 25:10.55 | 3:57.40 | 113305 | 131119
8 | 29:08.20 | 5:15.24 | 131120 | 154768
9 | 34:23.44 | 3:12.52 | 154769 | 169220
10 | 37:36.21 | 3:07.53 | 169221 | 183298
11 | 40:43.74 | 2:48.08 | 183299 | 195906
12 | 43:32.07 | 5:21.74 | 195907 | 220055
13 | 48:54.06 | 2:36.57 | 220056 | 231812
14 | 51:30.63 | 4:39.37 | 231813 | 252774
15 | 56:10.25 | 4:11.56 | 252775 | 271655
16 | 60:22.06 | 3:36.32 | 271656 | 287887


Range status and errors

Selected range

Filename H:\Norah Jones - Day Breaks (Deluxe)(EAC)\Norah Jones - Day Breaks (Deluxe Edition).wav

Peak level 97.3 %
Extraction speed 7.7 X
Range quality 100.0 %
Test CRC DEC33F0C
Copy CRC DEC33F0C
Copy OK

No errors occurred


AccurateRip summary

Track 1 not present in database
Track 2 not present in database
Track 3 not present in database
Track 4 not present in database
Track 5 not present in database
Track 6 not present in database
Track 7 not present in database
Track 8 not present in database
Track 9 not present in database
Track 10 not present in database
Track 11 not present in database
Track 12 not present in database
Track 13 not present in database
Track 14 not present in database
Track 15 not present in database
Track 16 not present in database

None of the tracks are present in the AccurateRip database

End of status report

foobar2000 1.2.9 / Dynamic Range Meter 1.1.1
log date: 2016-10-07 19:25:59

––––––––––––––––––––––––––––––––––––––––
Analyzed: Norah Jones / Day Breaks (Deluxe Edition)
––––––––––––––––––––––––––––––––––––––––

DR Peak RMS Duration Track
––––––––––––––––––––––––––––––––––––––––
DR10 -0.39 dB -12.58 dB 4:39 01-Burn
DR9 -0.39 dB -11.71 dB 4:15 02-Tragedy
DR7 -0.32 dB -9.11 dB 3:41 03-Flipside
DR12 -0.40 dB -15.01 dB 3:54 04-It's A Wonderful Time For Love
DR11 -0.40 dB -14.79 dB 3:06 05-And Then There Was You
DR9 -0.38 dB -11.17 dB 5:36 06-Don't Be Denied
DR9 -0.38 dB -12.11 dB 3:58 07-Day Breaks
DR11 -0.39 dB -13.99 dB 5:15 08-Peace
DR10 -0.39 dB -12.16 dB 3:13 09-Once I Had A Laugh
DR11 -0.40 dB -14.37 dB 3:08 10-Sleeping Wild
DR10 -0.39 dB -12.60 dB 2:48 11-Carry On
DR12 -0.40 dB -14.98 dB 5:22 12-Fleurette Africaine
DR10 -0.40 dB -13.90 dB 2:37 13-Carry On (Live)
DR7 -0.23 dB -9.21 dB 4:39 14-Flipside (Live)
DR11 -0.34 dB -14.47 dB 4:12 15-Peace (Live)
DR10 -0.40 dB -13.23 dB 3:36 16-Don't Know Why (Live)
––––––––––––––––––––––––––––––––––––––––

Number of tracks: 16
Official DR value: DR10

Samplerate: 44100 Hz
Channels: 2
Bits per sample: 16
Bitrate: 738 kbps
Codec: FLAC

[CUETools log; Date: 07.10.2016 19:11:31; Version: 2.1.4]
[CTDB TOCID: yCKc7tQqP.6UrYcjp9xg7S6n.iY-] found.
Track | CTDB Status
1 | (22/22) Accurately ripped
2 | (22/22) Accurately ripped
3 | (22/22) Accurately ripped
4 | (22/22) Accurately ripped
5 | (22/22) Accurately ripped
6 | (22/22) Accurately ripped
7 | (22/22) Accurately ripped
8 | (22/22) Accurately ripped
9 | (22/22) Accurately ripped
10 | (22/22) Accurately ripped
11 | (22/22) Accurately ripped
12 | (22/22) Accurately ripped
13 | (22/22) Accurately ripped
14 | (22/22) Accurately ripped
15 | (22/22) Accurately ripped
16 | (22/22) Accurately ripped
[AccurateRip ID: 002604f8-01c57fd4-dd0efe10] disk not present in database.

Track Peak [ CRC32 ] [W/O NULL] [ LOG ]
– 97,3 [DEC33F0C] [7CE3C70B] CRC32
01 95,6 [A8EBE6D9] [EE26B8B5]
02 95,6 [D55E1E33] [2E9125AC]
03 96,3 [7F110898] [9C04DC41]
04 95,5 [377EB293] [08BC122B]
05 95,5 [B9D5F87B] [40B99D7D]
06 95,6 [F2DE1093] [16CAC3DE]
07 95,6 [E44C486B] [74ADBE68]
08 95,5 [86F2439C] [41C279F2]
09 95,5 [FF0A537C] [DE6FC756]
10 95,5 [470547AF] [47F4DD3D]
11 95,6 [DFC1BB1B] [BECECF35]
12 95,5 [BFB6A092] [CCCCC66E]
13 95,5 [73A303BF] [B60A4845]
14 97,3 [BE95D6A3] [39707A83]
15 96,1 [CC8E0A92] [2D8BD70A]
16 95,5 [00C920E7] [D5912490]

Norah Jones - Day Breaks (2016) [Deluxe Edition]

All thanks go to the original releaser

Download Norah Jones - Day Breaks (2016):