Subcategories

Nucleus - Sentient (2016)

Posted By: v3122
Nucleus - Sentient (2016)

Nucleus - Sentient (2016)
EAC | Flac(Image) + Cue + Log & MP3 CBR 320Kbps
Unspeakable Axe Records, UAR026 | ~ 263 or 102 Mb | Scans(jpg) -> 40 Mb
Death Metal

Out of Chicago, Illinois come the band Nucleus, whose debut “Sentient” sets the perfect example of concentrated chaotic madness. I had been looking forward to this release as I have heard a lot of good things about this band, and it pleases me to say that all the good things I’ve heard are spot on. On top of that, the level of awesomeness goes right through the roof when you look and see that these guys only have a single, demo, and 2 EP’s under their belt before releasing this debut full-length. I say that because when you hear these guys, you would swear they had been perfecting their craft for more than just 4 yeas.

In listening to this CD, I felt such a vibe of respect for the old school style of the US death metal scene of the late 80’s on through the 90’s. There is also a little bit of a thrash element as well, but the old school death metal vibe takes precedence here. While the vibes and elements are there, the band takes things a bit further with their own style of playing. For instance, the guitar solos have a “current” feel to them. Almost like what you would find most new bands playing today. In doing this, I find that the bands approach and combination of old school riffs and new school type solos to be a unique and refreshing idea to the genre of death metal. In all seriousness, the riffs aren’t all crisp and razor sharp, but in their distorted “grittiness” they aren’t designed to cut the flesh from the bone. No, Not at all. They are more analogous to “tearing” it away in the most brutal way possible. I always like it when bands give respect to the old school in the presentation of their material, but very few take it to the next level like Nucleus do. From slow to mid-paced rhythms, these guys have it mastered on all levels. The only thing really typical here is the drums, but typical works here and like they say, if it isn’t broke then don’t fix it. It may be a typical style of playing, but there is a slight technical element in the presentation of the material that keeps it from being boring and repetitive. The influences I pick up on in this release are amazing and it goes to show that the guys in this band know their metal and are in it for the perfection and dedication of the art. Imagine, if you will, a mixture of Immolation, early Autopsy, early Vital Remains, and early Necrophobic with the slightest vibe of Nocturnus thrown in to take things over the top.

From beginning to end, Nucleus keep things interesting. The old school respect with a slight futuristic approach really works here. As with the drumming, but as a whole, these guys keep things from being boring and repetitive. In listening to this album a few times, I can safely say that these guys are not content to rest safely with simplicity. The peaks and valleys of this CD should tell you that the band is going to leave out anything that is bland and uneventful as it pertains to their brand of death metal. If you are into any of the above bands, then please contact the band or get a hold of the mighty Unspeakable Axe Records for information on how to get this awesome release. This label hits another one out of the park with this album. So, with that, I recommend checking their back catalog as well. I know I will. I want to see how this band has progressed since they have started.

by Akerthorpe, metal-archives.com
Nucleus - Sentient (2016):

Nucleus - Sentient (2016)

Tracklist:

1. Sentience
2. Dosadi
3. Cantos
4. Swarm
5. Cube
6. Insurgent
7. Ancient
8. Extirpate
9. Starflyer

Exact Audio Copy V1.1 from 23. June 2015

EAC extraction logfile from 10. July 2016, 22:41

Nucleus / Sentient

Used drive : ASUS DRW-24B1ST Adapter: 1 ID: 1

Read mode : Secure
Utilize accurate stream : Yes
Defeat audio cache : Yes
Make use of C2 pointers : No

Read offset correction : 6
Overread into Lead-In and Lead-Out : No
Fill up missing offset samples with silence : Yes
Delete leading and trailing silent blocks : No
Null samples used in CRC calculations : Yes
Used interface : Native Win32 interface for Win NT & 2000

Used output format : User Defined Encoder
Selected bitrate : 1024 kBit/s
Quality : High
Add ID3 tag : No
Command line compressor : C:\Program Files (x86)\Exact Audio Copy\Flac\flac.exe
Additional command line options : -V -8 -T "Date=%year%" -T "Genre=%genre%" %source%


TOC of the extracted CD

Track | Start | Length | Start sector | End sector
––––––––––––––––––––––––––––-
1 | 0:00.00 | 1:33.55 | 0 | 7029
2 | 1:33.55 | 3:15.19 | 7030 | 21673
3 | 4:48.74 | 4:37.65 | 21674 | 42513
4 | 9:26.64 | 4:43.57 | 42514 | 63795
5 | 14:10.46 | 3:19.00 | 63796 | 78720
6 | 17:29.46 | 3:33.50 | 78721 | 94745
7 | 21:03.21 | 5:23.59 | 94746 | 119029
8 | 26:27.05 | 3:31.22 | 119030 | 134876
9 | 29:58.27 | 6:58.54 | 134877 | 166280


Range status and errors

Selected range

Filename E:\Torrent\Ginger Devil\Nucleus - Sentient (2016) (Unspeakable Axe Records, UAR026, U.S.A.)\Nucleus - Sentient.wav

Peak level 96.7 %
Extraction speed 5.1 X
Range quality 99.9 %
Test CRC 8340740A
Copy CRC 8340740A
Copy OK

No errors occurred


AccurateRip summary

Track 1 not present in database
Track 2 not present in database
Track 3 not present in database
Track 4 not present in database
Track 5 not present in database
Track 6 not present in database
Track 7 not present in database
Track 8 not present in database
Track 9 not present in database

None of the tracks are present in the AccurateRip database

End of status report

–– CUETools DB Plugin V2.1.6

[CTDB TOCID: Ft4gv5af8o3CuEZY1AjZrrg9Cc0-] found
Submit result: already submitted
Track | CTDB Status
1 | (4/4) Accurately ripped
2 | (4/4) Accurately ripped
3 | (4/4) Accurately ripped
4 | (4/4) Accurately ripped
5 | (4/4) Accurately ripped
6 | (4/4) Accurately ripped
7 | (4/4) Accurately ripped
8 | (4/4) Accurately ripped
9 | (4/4) Accurately ripped


==== Log checksum B22743D072831EAD60BA22BB823B6A0E22E8FC41ED90CB750875EF899CCF3C86 ====

Nucleus - Sentient (2016)

All thanks go to Ginger Devil

Death Metal in my Blog

Download Nucleus - Sentient (2016):