Subcategories

Olaf Rupp, Shoji Hano - Noomiso (2008)

Posted By: v3122
Olaf Rupp, Shoji Hano - Noomiso (2008)

Olaf Rupp, Shoji Hano - Noomiso (2008)
EAC | Flac(Image) + Cue + Log & MP3 CBR 320Kbps
Kootown Records | Japan | ~ 213 or 94 Mb | Artwork(jpg) -> 37 Mb
Free Jazz

~ Recorded live at the Moers Festival, Moers, Germany, May 27, 2007 ~

Olaf Rupp, Shoji Hano - Noomiso (2008)

Olaf Rupp, Shoji Hano - Noomiso (2008):

Olaf Rupp, Shoji Hano - Noomiso (2008)

Tracklist:

1. One (19:21)
2. Two (10:58)
3. Noomiso Introduction (1:24)
4. Noomiso (7:56)

Olaf Rupp - electric guitar
Shoji Hano - drums


Exact Audio Copy V1.0 beta 2 from 29. April 2011

EAC extraction logfile from 27. February 2013, 1:39

Olaf Rupp - Shoji Hano / Noomiso

Used drive : Optiarc DVD RW AD-5280S Adapter: 1 ID: 1

Read mode : Secure
Utilize accurate stream : Yes
Defeat audio cache : Yes
Make use of C2 pointers : No

Read offset correction : 48
Overread into Lead-In and Lead-Out : No
Fill up missing offset samples with silence : Yes
Delete leading and trailing silent blocks : No
Null samples used in CRC calculations : Yes
Used interface : Native Win32 interface for Win NT & 2000
Gap handling : Appended to previous track

Used output format : User Defined Encoder
Selected bitrate : 128 kBit/s
Quality : High
Add ID3 tag : No
Command line compressor : C:\Program Files\FLAC\flac.exe
Additional command line options : -V -8 -T "Genre=%genre%" -T "Artist=%artist%" -T "Title=%title%" -T "Album=%albumtitle%" -T "Date=%year%" -T "Tracknumber=%tracknr%" -T "Comment=%comment%" %source%


TOC of the extracted CD

Track | Start | Length | Start sector | End sector
––––––––––––––––––––––––––––-
1 | 0:00.00 | 19:23.22 | 0 | 87246
2 | 19:23.22 | 10:58.61 | 87247 | 136657
3 | 30:22.08 | 1:24.01 | 136658 | 142958
4 | 31:46.09 | 7:56.06 | 142959 | 178664


Track 1

Filename C:\Olaf Rupp - Shoji Hano (2008) - Noomiso\01 - One.wav

Pre-gap length 0:00:02.00

Peak level 90.1 %
Extraction speed 3.2 X
Track quality 99.9 %
Test CRC 353B7C02
Copy CRC 353B7C02
Track not present in AccurateRip database
Copy OK

Track 2

Filename C:\Olaf Rupp - Shoji Hano (2008) - Noomiso\02 - Two.wav

Pre-gap length 0:00:02.00

Peak level 79.1 %
Extraction speed 4.1 X
Track quality 100.0 %
Test CRC 9BAB06C9
Copy CRC 9BAB06C9
Track not present in AccurateRip database
Copy OK

Track 3

Filename C:\Olaf Rupp - Shoji Hano (2008) - Noomiso\03 - Noomiso Introduction.wav

Peak level 73.1 %
Extraction speed 2.5 X
Track quality 99.8 %
Test CRC 1108759B
Copy CRC 1108759B
Track not present in AccurateRip database
Copy OK

Track 4

Filename C:\Olaf Rupp - Shoji Hano (2008) - Noomiso\04 - Noomiso.wav

Peak level 74.1 %
Extraction speed 4.2 X
Track quality 99.9 %
Test CRC 13FE4004
Copy CRC 13FE4004
Track not present in AccurateRip database
Copy OK


None of the tracks are present in the AccurateRip database

No errors occurred

End of status report

==== Log checksum A728A51FBD4B6D147993A86CEB492FCB6FA32371496FA81723B7915C8B1FCF3B ====


[CUETools log; Date: 15.01.2020 14:30:24; Version: 2.1.6]
[CTDB TOCID: zC15B2C.GzfqUrWSbHFDY6JJhFU-] disk not present in database.
[AccurateRip ID: 000852f9-001f465e-30094e04] disk not present in database.

Track Peak [ CRC32 ] [W/O NULL] [ LOG ]
– 90,1 [8A831D3D] [A526655D]
01 90,1 [353B7C02] [DF8C3344] CRC32
02 79,1 [9BAB06C9] [50497188] CRC32
03 73,1 [1108759B] [BC651B83] CRC32
04 74,1 [13FE4004] [4C7638DB] CRC32


Olaf Rupp, Shoji Hano - Noomiso (2008)

All thanks go to gssmg7

Shoji Hano in my Blog

Download Olaf Rupp, Shoji Hano - Noomiso (2008):