Tags
Language
Tags

Olivia Newton-John - Have You Never Been Mellow (1975) [1998, Digitally Remastered] *Re-Up* *New Rip*

Posted By: BlondStyle
Olivia Newton-John - Have You Never Been Mellow (1975) [1998, Digitally Remastered] *Re-Up* *New Rip*

Olivia Newton-John - Have You Never Been Mellow (1975) [1998, Digitally Remastered]
Pop/Rock, Country | EAC Rip | FLAC, Img+CUE+LOG+Scans (PNG) | 39:55 Min | 406,13 Mb
Label: Warner Music Australia (AU) | Cat.# D35465 (D21046) | Released: 1998-10-05 (1975-02-12)
Olivia Newton-John - Have You Never Been Mellow (1975) [1998, Digitally Remastered] *Re-Up* *New Rip*

"Have You Never Been Mellow" is the sixth studio album by Australian singer-songwriter Olivia Newton-John, released on 12 February 1975 by MCA Records. Both the title single and the album rose to the top of their respective US charts (the Billboard Hot 100 singles chart and the Billboard 200 albums chart). The title song and its follow-up, "Please Mr. Please", were both top 10 on three Billboard charts: the Hot 100, Adult Contemporary, and Country, and were both also #1 singles in the Netherlands. Outside the United States, the album was released with the single "If You Love Me, Let Me Know", as the single was only released in the United States on the album of the same name. Unlike in the US, Have You Never Been Mellow was not much of a success in many countries, and in many notable cases (such as the United Kingdom), the title single failed to chart. However, the title song was Newton-John's first single to chart in Japan, where it reached #26 on the Oricon singles chart, a respectable showing for a non-Japanese artist. Newton-John received a Grammy nomination for Best Female Pop Vocal Performance for her work on the song "Have You Never Been Mellow", but lost to "At Seventeen" by Janis Ian. The album was certified Gold in the US. The LP sold 169,380 in Japan. The title single also topped the chart in 1996 in the Netherlands as a happy hardcore cover version by a group named Party Animals, called "Have You Ever Been Mellow", using a sample of Newton-John's version.
~Wikipedia
The hit single "Have You Never Been Mellow" carried Olivia Newton-John right back to number one, six months after "I Honestly Love You" brought the singer to that coveted position for the first time. The title track is a masterpiece of songwriting by her producer, John Farrar, an exquisitely pleasant melody with a sunny and peaceful theme. Having covered John Denver's "Take Me Home Country Roads" on the Let Me Be There album in 1973, Newton-John goes back to the Denver catalog twice on this project, including her beautiful rendition of one of his lesser-known gems, "Follow Me," with Farrar's lush country-pop instrumental backing. "The Air That I Breathe" was a hit for the Hollies when Newton-John was filling the airwaves with "I Honestly Love You"; she does a nice interpretation of the Albert Hammond/Mike Hazlewood song here, along with an intriguing look at Rick Nelson's "Lifestream." The album also includes a soulful reading of Graeme Hall's "And in the Morning" and a John Farrar/Hank Marvin composition, "It's So Easy," a fun melody that is not the Buddy Holly title of the same name. Years after it was recorded, Have You Never Been Mellow continued to stand as an entertaining and full album by a woman who would record hits for another 11 years. The title track opens the album and it closes with former producer Bruce Welch's co-write of "Please Mr. Please," a pretty pop tune that went Top Three. From beginning to end Have You Never Been Mellow is Olivia Newton-John showing why she could hold her own on the charts with as powerful a star as Elton John. Recorded at EMI Studios, London, it has impeccable sound and a special vibe.
~Review by Joe Viglione

Olivia Newton-John - Have You Never Been Mellow (1975) [1998, Digitally Remastered] *Re-Up* *New Rip*

Olivia Newton-John - Have You Never Been Mellow (1975) [1998, Digitally Remastered] *Re-Up* *New Rip*




Release of the album: 1975, February, 12 [LP Interfusion, Cat.# L 35465, AU]
Release of this CD: 1998, October, 5 [CD Warner Music Australia (AU), Cat.# D35465 (D21046) / UPC: 9399602104621]
Note: Re-Mastering 1998 Festival Records Australia.
Manufactured and Distributed by Warner Music Australia
A Warner Music Group Company

Credits:

Arranged By – John Fiddy
Engineer – Tony Clark
Engineer [Second] – Alan Rouse
Photography By – Charles Bush
Producer – John Farrar


Tracklist:

01. Have You Never Been Mellow (03:31)
(John Farrar)
02. Loving Arms (02:53)
(Tom Jans)
03. Lifestream (02:37)
(Ricky Nelson)
04. Goodbye Again (03:55)
(John Denver)
05. Water Under The Bridge (03:02)
(Petrina Lordan)
06. I Never Did Sing You A Love Song (02:44)
(David Nichtern)
07. It's So Easy (03:06)
(Hank Marvin, John Farrar)
08. The Air That I Breathe (03:50)
(Albert Hammond, Mike Hazlewood)
09. Follow Me (03:01)
(John Denver)
10. And In The Morning (04:37)
(Graeme Hall)
11. Please Mr. Please (03:22)
(Bruce Welch, John Rostill)
12. If You Love Me (Let Me Know) (03:15)
(John Rostill)

Recorded 1974 at Abbey Road Studios, London

Exact Audio Copy V1.3 from 2. September 2016

EAC extraction logfile from 12. May 2018, 19:35

Olivia Newton-John / Have You Never Been Mellow

Used drive : PIONEER BD-RW BDR-208D Adapter: 1 ID: 0

Read mode : Secure
Utilize accurate stream : Yes
Defeat audio cache : Yes
Make use of C2 pointers : No

Read offset correction : 667
Overread into Lead-In and Lead-Out : No
Fill up missing offset samples with silence : Yes
Delete leading and trailing silent blocks : No
Null samples used in CRC calculations : Yes
Used interface : Native Win32 interface for Win NT & 2000

Used output format : Internal WAV Routines
Sample format : 44.100 Hz; 16 Bit; Stereo


TOC of the extracted CD

Track | Start | Length | Start sector | End sector
––––––––––––––––––––––––––––-
1 | 0:00.00 | 3:31.25 | 0 | 15849
2 | 3:31.25 | 2:53.25 | 15850 | 28849
3 | 6:24.50 | 2:36.62 | 28850 | 40611
4 | 9:01.37 | 3:55.08 | 40612 | 58244
5 | 12:56.45 | 3:02.35 | 58245 | 71929
6 | 15:59.05 | 2:44.27 | 71930 | 84256
7 | 18:43.32 | 3:06.28 | 84257 | 98234
8 | 21:49.60 | 3:50.07 | 98235 | 115491
9 | 25:39.67 | 3:01.18 | 115492 | 129084
10 | 28:41.10 | 4:36.45 | 129085 | 149829
11 | 33:17.55 | 3:22.20 | 149830 | 164999
12 | 36:40.00 | 3:15.00 | 165000 | 179624


Range status and errors

Selected range

Filename D:\BlondStyle\Have You Never Been Mellow.wav

Peak level 99.9 %
Extraction speed 6.6 X
Range quality 100.0 %
Test CRC F89BD04D
Copy CRC F89BD04D
Copy OK

No errors occurred


AccurateRip summary

Track 1 accurately ripped (confidence 7) [D1A34C13] (AR v2)
Track 2 accurately ripped (confidence 7) [46CD74B4] (AR v2)
Track 3 accurately ripped (confidence 7) [EAB78ADF] (AR v2)
Track 4 accurately ripped (confidence 7) [AC3DCD93] (AR v2)
Track 5 accurately ripped (confidence 7) [07313311] (AR v2)
Track 6 accurately ripped (confidence 7) [1CADDFA5] (AR v2)
Track 7 accurately ripped (confidence 7) [F364C7A8] (AR v2)
Track 8 accurately ripped (confidence 7) [2EEEA878] (AR v2)
Track 9 accurately ripped (confidence 7) [49F1A5DD] (AR v2)
Track 10 accurately ripped (confidence 7) [FE0B6067] (AR v2)
Track 11 accurately ripped (confidence 7) [EC2EBC07] (AR v2)
Track 12 accurately ripped (confidence 7) [F3F81AE5] (AR v2)

All tracks accurately ripped

End of status report

–– CUETools DB Plugin V2.1.6

[CTDB TOCID: rvM2ohXNqLVWXYV4ctZRGvxvTqM-] found
Submit result: rvM2ohXNqLVWXYV4ctZRGvxvTqM- has been confirmed
Track | CTDB Status
1 | (8/8) Accurately ripped
2 | (8/8) Accurately ripped
3 | (8/8) Accurately ripped
4 | (8/8) Accurately ripped
5 | (8/8) Accurately ripped
6 | (8/8) Accurately ripped
7 | (8/8) Accurately ripped
8 | (8/8) Accurately ripped
9 | (8/8) Accurately ripped
10 | (8/8) Accurately ripped
11 | (8/8) Accurately ripped
12 | (8/8) Accurately ripped


==== Log checksum 5C5252EB2102CF460560AFD145A5E49078266B632B71A627EBD8AE59F0F980E7 ====

[Disc ID: 00115973-00a2da4c-94095b0c]
Track [ CRC ] Status
01 [68fd142f] (07/14) Accurately ripped as in pressing(s) #1
02 [40bb5b12] (07/14) Accurately ripped as in pressing(s) #1
03 [c431a874] (07/14) Accurately ripped as in pressing(s) #1
04 [c5eea310] (07/14) Accurately ripped as in pressing(s) #1
05 [4ec3edd6] (07/14) Accurately ripped as in pressing(s) #1
06 [5f567225] (07/14) Accurately ripped as in pressing(s) #1
07 [39a90c10] (07/14) Accurately ripped as in pressing(s) #1
08 [c37e8c02] (07/14) Accurately ripped as in pressing(s) #1
09 [9dbb7b2b] (07/14) Accurately ripped as in pressing(s) #1
10 [e307f413] (07/14) Accurately ripped as in pressing(s) #1
11 [1f1ae796] (07/14) Accurately ripped as in pressing(s) #1
12 [5dccf9cf] (07/14) Accurately ripped as in pressing(s) #1

––––––––––––––––––––––––––––––––––––––––
Analyzed: Olivia Newton-John / Have You Never Been Mellow
––––––––––––––––––––––––––––––––––––––––

DR Peak RMS Duration Track
––––––––––––––––––––––––––––––––––––––––
DR8 -1.37 dB -11.79 dB 3:31 01-Have You Never Been Mellow
DR9 -0.54 dB -12.86 dB 2:53 02-Loving Arms
DR10 -0.96 dB -13.07 dB 2:37 03-Lifestream
DR9 -0.62 dB -11.55 dB 3:55 04-Goodbye Again
DR8 -0.77 dB -10.66 dB 3:02 05-Water Under The Bridge
DR9 -0.82 dB -12.30 dB 2:44 06-I Never Did Sing You A Love Song
DR8 -0.76 dB -10.40 dB 3:06 07-It's So Easy
DR10 -0.55 dB -15.83 dB 3:50 08-The Air That I Breathe
DR9 -0.39 dB -11.76 dB 3:01 09-Follow Me
DR10 0.00 dB -14.07 dB 4:37 10-And In The Morning
DR9 -0.38 dB -12.49 dB 3:22 11-Please Mr. Please
DR9 -0.67 dB -11.92 dB 3:15 12-If You Love Me (Let Me Know)
––––––––––––––––––––––––––––––––––––––––

Number of tracks: 12
Official DR value: DR9

Samplerate: 44100 Hz
Channels: 2
Bits per sample: 16
Bitrate: 894 kbps
Codec: FLAC
================================================================================

See also:


password: BlondStyle