Subcategories

Omega - 10000 Lépés (1969) [Reissue 2003]

Posted By: gribovar
Omega - 10000 Lépés (1969) [Reissue 2003]

Omega - 10000 Lépés (1969) [Reissue 2003]
EAC Rip | FLAC (image+.cue+log) - 400 MB | MP3 CBR 320 kbps (LAME 3.93) - 158 MB | Covers included
Genre: Progressive/Psychedelic Rock | RAR 3% Rec. | Label: Hungaroton (HCD 17400)

The second Hungarian album is much better than the amateurish debut, but the sound and style of the band is still not fully developed. Traces of psychedelic pop beat in "Petróleum lámpa" are being ever more informed by the burgeoning heavy rock guitar and organ riffs in "Túzvihar". The best compositions, the all-time favourite love ballad "Györgyhajú lány" (shamelessly copied and plagiarised by many, including the German metal legends Scorpions) and the powerfull, with excellent solo guitar, heavy stomping title track ("Ten Thousand Steps" in English), are at the same time the most progressive ones. The gatefold cover desing is very good showing the legacy of psychedelia.
Progarchives

Tracklist:
01. Petróleum lámpa
02. Györgyhajú lány
03. Túzvihar
04. Udvari bolond kenyere
05. Kérgeskezú favágök
06. Tékozló fiúk
07. Tizezer lépés
08. Az 1958-as boogie-woogie klubban
09. Spanyol gitár legenda
10. Félbeszakadt koncert
11. Halott Virágok (Bonus track)
12. Nem Tilthatom Meg (Bonus track)
13. Volt Egy Bohóc (Bonus track)
14. Régi Csibészek (Bonus track)
15. Naplemente (Bonus track)

Total time: 01:01:39

Exact Audio Copy V0.99 prebeta 1 from 25. May 2007

Отчёт EAC об извлечении, выполненном 1. декабря 2008, 13:56

Omega / 10000 Lepes

Дисковод: SONY CD-ROM CDU5212 Adapter: 0 ID: 1

Режим чтения : Достоверность
Использование точного потока : Да
Отключение кэша аудио : Да
Использование указателей C2 : Нет

Коррекция смещения при чтении : 12
Способность читать области Lead-in и Lead-out : Нет
Заполнение пропущенных сэмплов тишиной : Да
Удаление блоков с тишиной в начале и конце : Нет
Интерфейс : Встроенный Win32-интерфейс для Win NT/2000

Выходной формат : Пользовательский кодировщик
Выбранный битрейт : 768 kBit/s
Качество : Высокий
Добавление ID3-тэга : Нет
Утилита сжатия : C:\Program Files\Exact Audio Copy\FLAC\FLAC.EXE
Дополнительные параметры : -6 -V -T "ARTIST=%a" -T "TITLE=%t" -T "ALBUM=%g" -T "DATE=%y" -T "TRACKNUMBER=%n" -T "GENRE=%m" -T "COMMENT=%e" %s -o %d


TOC извлечённого CD

Трек | Старт | Длительность | Начальный сектор | Конечный сектор
––––––––––––––––––––––––––––––––––-
1 | 0:02.00 | 3:14.49 | 150 | 14748
2 | 3:16.49 | 5:49.31 | 14749 | 40954
3 | 9:06.05 | 3:09.51 | 40955 | 55180
4 | 12:15.56 | 3:32.06 | 55181 | 71086
5 | 15:47.62 | 8:15.57 | 71087 | 108268
6 | 24:03.44 | 4:34.22 | 108269 | 128840
7 | 28:37.66 | 6:13.72 | 128841 | 156887
8 | 34:51.63 | 2:19.34 | 156888 | 167346
9 | 37:11.22 | 3:24.74 | 167347 | 182720
10 | 40:36.21 | 4:00.19 | 182721 | 200739
11 | 44:36.40 | 1:56.32 | 200740 | 209471
12 | 46:32.72 | 4:15.58 | 209472 | 228654
13 | 50:48.55 | 4:09.40 | 228655 | 247369
14 | 54:58.20 | 2:35.21 | 247370 | 259015
15 | 57:33.41 | 4:05.48 | 259016 | 277438


Характеристики диапазона извлечения и сообщения об ошибках

Выбранный диапазон

Имя файла D:\TORRENT\Omega (1969) - II\Omega - 10000 Lepes.wav

Пиковый уровень 99.9 %
Качество диапазона 99.9 %
CRC теста 46CCD7AC
CRC копии 46CCD7AC
Копирование… OK


AccurateRip: сводка

Трек 1 точное извлечение (доверие 1) [442B589E]
Трек 2 точное извлечение (доверие 1) [7162A3CD]
Трек 3 точное извлечение (доверие 1) [E7A3C178]
Трек 4 точное извлечение (доверие 1) [5733138A]
Трек 5 точное извлечение (доверие 1) [6D5609AF]
Трек 6 точное извлечение (доверие 1) [F6ED7142]
Трек 7 точное извлечение (доверие 1) [0006D58C]
Трек 8 точное извлечение (доверие 1) [0DFC46EF]
Трек 9 точное извлечение (доверие 1) [E7DF563F]
Трек 10 точное извлечение (доверие 1) [36E6911F]
Трек 11 точное извлечение (доверие 1) [8E45CC66]
Трек 12 точное извлечение (доверие 1) [EA8DE343]
Трек 13 точное извлечение (доверие 1) [0FBEDC10]
Трек 14 точное извлечение (доверие 1) [75EA9253]
Трек 15 точное извлечение (доверие 1) [F1534BBC]

Ошибок не произошло

Конец отчёта

[CUETools log; Date: 26.11.2015 19:29:03; Version: 2.1.4]
Pregap length 00:02:00.
[CTDB TOCID: BXl8BpN7jaiEpr4D7_J7Zg5zJ44-] found.
Track | CTDB Status
1 | (5/6) Accurately ripped
2 | (5/6) Accurately ripped
3 | (5/6) Accurately ripped
4 | (5/6) Accurately ripped
5 | (5/6) Accurately ripped
6 | (5/6) Accurately ripped
7 | (5/6) Accurately ripped
8 | (6/6) Accurately ripped
9 | (6/6) Accurately ripped
10 | (6/6) Accurately ripped
11 | (6/6) Accurately ripped
12 | (5/6) Accurately ripped
13 | (5/6) Accurately ripped
14 | (5/6) Accurately ripped
15 | (5/6) Accurately ripped
[AccurateRip ID: 0023d750-01921325-e30e710f] found.
Track [ CRC | V2 ] Status
01 [442b589e|6cb17be4] (2+5/7) Accurately ripped
02 [7162a3cd|462af47f] (2+5/7) Accurately ripped
03 [e7a3c178|e8ab171b] (2+5/7) Accurately ripped
04 [5733138a|ebb049c1] (2+5/7) Accurately ripped
05 [6d5609af|ed3e44c2] (2+5/7) Accurately ripped
06 [f6ed7142|32802b31] (2+5/7) Accurately ripped
07 [0006d58c|d82ed193] (2+5/7) Accurately ripped
08 [0dfc46ef|a4a71aed] (2+5/7) Accurately ripped
09 [e7df563f|1fb843e7] (2+5/7) Accurately ripped
10 [36e6911f|0cf7c531] (2+5/7) Accurately ripped
11 [8e45cc66|0780e414] (2+5/7) Accurately ripped
12 [ea8de343|037f810a] (2+5/7) Accurately ripped
13 [0fbedc10|ad0dff26] (2+5/7) Accurately ripped
14 [75ea9253|990722eb] (2+5/7) Accurately ripped
15 [f1534bbc|f4537200] (2+5/7) Accurately ripped

Track Peak [ CRC32 ] [W/O NULL] [ LOG ]
– 99,9 [A96EF0E7] [46CCD7AC] W/O NULL
01 99,9 [CCFE596A] [D4A1D367]
02 99,9 [DA7C7525] [538B50DC]
03 99,9 [6C1C215F] [5F8D6F86]
04 99,9 [DFF08D98] [7554D82C]
05 99,9 [F25012C0] [946C7175]
06 92,9 [4E2D5DB4] [28ADDBC8]
07 99,7 [47C301D9] [521BFD19]
08 99,8 [925ABC85] [3795BC68]
09 89,5 [3ED17DC8] [0C2B7136]
10 97,7 [DD2ED6DF] [C0647434]
11 99,9 [09B574BB] [839464E7]
12 99,8 [F3DE43EB] [667417C5]
13 99,9 [1B659B1E] [E7EB7E99]
14 99,9 [A9E4BDB3] [536E8269]
15 99,6 [D7F761D8] [B6E0D333]

Thanks to Fragile59

LOSSLESS:
Nitroflare.com
_______________

MP3 320 kbps:
Nitroflare.com


LOSSLESS:
Turbobit.net
_______________

MP3 320 kbps:
Turbobit.net