Subcategories
Tags
Language
Tags

One Desire - One Night Only: Live In Helsinki (2021)

Posted By: v3122
One Desire - One Night Only: Live In Helsinki (2021)

One Desire - One Night Only: Live In Helsinki (2021)
Flac(Image) + Cue & MP3 CBR 320Kbps | ~ 488 or 147 Mb
Blu-ray: MPEG-2 1080p, 24 fps, 16:9 | LPCM 2.0, 48 kHz, 2304 kbps, 24-bit
Melodic Hard Rock

Frontiers Music Srl has announced the release of the first-ever live album and video from Finland’s melodic rockers One Desire, “One Night Only – Live In Helsinki”, on June 11, 2021. Fans of the band who have had the pleasure of seeing them live already know how incredible the band is in that setting, but now fans who haven’t yet had the opportunity will get to see for themselves!…
One Desire - One Night Only: Live In Helsinki (2021):

Tracklist:

1. Shadowman
2. Apologize
3. Down And Dirty
4. Heroes
5. Godsent Extasy
6. This Is Where The Heartbreak Begins
7. Only When I Breathe
8. Falling Apart
9. After You’re Gone
10. Whenever I’m Dreaming
11. Hurt
12. Buried Alive

[CUETools log; Date: 11.06.2021 16:06:42; Version: 2.1.4]
Padded some input files to a frame boundary.
[AccurateRip ID: 00194e40-00ecb3c9-a40e930c] disk not present in database.

Track Peak [ CRC32 ] [W/O NULL]
– 100,0 [B3C79BCF] [D8AC2C1F]
01 99,8 [F81AE547] [5D600516]
02 100,0 [37F27937] [2B5B78D5]
03 100,0 [D1AAF9FA] [3598E436]
04 100,0 [647CD5FC] [69AC2E1E]
05 100,0 [D454EE9F] [9D75A209]
06 99,4 [C7282E62] [7643B05D]
07 98,6 [9798DACE] [C1F473EA]
08 99,4 [01453D08] [221B1F04]
09 100,0 [BDE71845] [D41B810A]
10 100,0 [459C6ECA] [AD573582]
11 99,1 [E2991EC3] [23CBB216]
12 99,2 [C74076C5] [99BD6A29]


Tracklist BD:

1. Shadowman
2. Apologize
3. Down And Dirty
4. Heroes
5. Godsent Extasy
6. This Is Where The Heartbreak Begins
7. Only When I Breathe
8. Falling Apart
9. After You’re Gone
10. Whenever I’m Dreaming
11. Hurt
12. Buried Alive
+
The making of [00:05:34]
After You’re Gone
Godsent Extasy
Heroes
Shadowman

Disc Label: One Desire 2021 - One Night Only - BD
Disc Size: 19,512,926,152 bytes
Protection: AACS
BDInfo: 0.7.5.5

Notes:

BDINFO HOME:
Cinema Squid (old)
http://www.cinemasquid.com/blu-ray/tools/bdinfo
UniqProject GitHub (new)
https://github.com/UniqProject/BDInfo

INCLUDES FORUMS REPORT FOR:
AVS Forum Blu-ray Audio and Video Specifications Thread
http://www.avsforum.com/avs-vb/showthread.php?t=1155731

WARNING: Report is incomplete because: Scan has not been run.

********************
PLAYLIST: 00002.MPLS
********************

<–- BEGIN FORUMS PASTE –->
                                                                                                                Total   Video                                             
Title                                                           Codec   Length  Movie Size      Disc Size       Bitrate Bitrate Main Audio Track                          Secondary Audio Track
-----                                                           ------  ------- --------------  --------------  ------- ------- ------------------                        ---------------------
00002.MPLS                                                      MPEG-2  1:02:17 0               19,512,926,152  0.00    0.00    LPCM 2.0 2304Kbps (48kHz/24-bit)          


DISC INFO:

Disc Label:     One Desire 2021 - One Night Only - BD
Disc Size:      19,512,926,152 bytes
Protection:     AACS
BDInfo:         0.7.5.5

PLAYLIST REPORT:

Name:                   00002.MPLS
Length:                 1:02:17.252 (h:m:s.ms)
Size:                   0 bytes
Total Bitrate:          0.00 Mbps

VIDEO:

Codec                   Bitrate             Description     
-----                   -------             -----------     
MPEG-2 Video            0 kbps              1080p / 24 fps / 16:9

AUDIO:

Codec                           Language        Bitrate         Description     
-----                           --------        -------         -----------     
LPCM Audio                      Undetermined    2304 kbps       2.0 / 48 kHz /  2304 kbps / 24-bit

SUBTITLES:

Codec                           Language        Bitrate         Description     
-----                           --------        -------         -----------     
Presentation Graphics           English         0.000 kbps                      

FILES:

Name            Time In         Length          Size            Total Bitrate   
----            -------         ------          ----            -------------   
00002.M2TS      0:00:00.000     1:02:17.252     0               0               

CHAPTERS:

Number          Time In         Length          Avg Video Rate  Max 1-Sec Rate  Max 1-Sec Time  Max 5-Sec Rate  Max 5-Sec Time  Max 10Sec Rate  Max 10Sec Time  Avg Frame Size  Max Frame Size  Max Frame Time  
------          -------         ------          --------------  --------------  --------------  --------------  --------------  --------------  --------------  --------------  --------------  --------------  
1               0:00:00.000     0:06:19.333     0 kbps          0 kbps          00:00:00.000    0 kbps          00:00:00.000    0 kbps          00:00:00.000    0 bytes         0 bytes         00:00:00.000    
2               0:06:19.333     0:03:26.916     0 kbps          0 kbps          00:00:00.000    0 kbps          00:00:00.000    0 kbps          00:00:00.000    0 bytes         0 bytes         00:00:00.000    
3               0:09:46.250     0:04:49.666     0 kbps          0 kbps          00:00:00.000    0 kbps          00:00:00.000    0 kbps          00:00:00.000    0 bytes         0 bytes         00:00:00.000    
4               0:14:35.917     0:04:18.708     0 kbps          0 kbps          00:00:00.000    0 kbps          00:00:00.000    0 kbps          00:00:00.000    0 bytes         0 bytes         00:00:00.000    
5               0:18:54.625     0:04:42.250     0 kbps          0 kbps          00:00:00.000    0 kbps          00:00:00.000    0 kbps          00:00:00.000    0 bytes         0 bytes         00:00:00.000    
6               0:23:36.876     0:05:30.208     0 kbps          0 kbps          00:00:00.000    0 kbps          00:00:00.000    0 kbps          00:00:00.000    0 bytes         0 bytes         00:00:00.000    
7               0:29:07.084     0:01:46.583     0 kbps          0 kbps          00:00:00.000    0 kbps          00:00:00.000    0 kbps          00:00:00.000    0 bytes         0 bytes         00:00:00.000    
8               0:30:53.668     0:05:19.916     0 kbps          0 kbps          00:00:00.000    0 kbps          00:00:00.000    0 kbps          00:00:00.000    0 bytes         0 bytes         00:00:00.000    
9               0:36:13.585     0:05:00.041     0 kbps          0 kbps          00:00:00.000    0 kbps          00:00:00.000    0 kbps          00:00:00.000    0 bytes         0 bytes         00:00:00.000    
10              0:41:13.626     0:04:33.333     0 kbps          0 kbps          00:00:00.000    0 kbps          00:00:00.000    0 kbps          00:00:00.000    0 bytes         0 bytes         00:00:00.000    
11              0:45:46.960     0:05:53.000     0 kbps          0 kbps          00:00:00.000    0 kbps          00:00:00.000    0 kbps          00:00:00.000    0 bytes         0 bytes         00:00:00.000    
12              0:51:39.960     0:05:13.791     0 kbps          0 kbps          00:00:00.000    0 kbps          00:00:00.000    0 kbps          00:00:00.000    0 bytes         0 bytes         00:00:00.000    
13              0:56:53.752     0:05:23.500     0 kbps          0 kbps          00:00:00.000    0 kbps          00:00:00.000    0 kbps          00:00:00.000    0 bytes         0 bytes         00:00:00.000    

STREAM DIAGNOSTICS:

File            PID             Type            Codec           Language                Seconds                 Bitrate                 Bytes           Packets         
----            ---             ----            -----           --------                --------------          --------------          -------------   -----           
00002.M2TS      4113 (0x1011)   0x02            MPEG-2                                  0                       0                       0               0               
00002.M2TS      4352 (0x1100)   0x80            LPCM            und (Undetermined)      0                       0                       0               0               
00002.M2TS      4608 (0x1200)   0x90            PGS             eng (English)           0                       0                       0               0               

<–– END FORUMS PASTE ––>

QUICK SUMMARY:

Disc Label: One Desire 2021 - One Night Only - BD
Disc Size: 19,512,926,152 bytes
Protection: AACS
Playlist: 00002.MPLS
Size: 0 bytes
Length: 1:02:17.252
Total Bitrate: 0.00 Mbps
Video: MPEG-2 Video / 0 kbps / 1080p / 24 fps / 16:9
Audio: Undetermined / LPCM Audio / 2.0 / 48 kHz / 2304 kbps / 24-bit
Subtitle: English / 0.000 kbps


********************
PLAYLIST: 00004.MPLS
********************

<–- BEGIN FORUMS PASTE –->
                                                                                                                Total   Video                                             
Title                                                           Codec   Length  Movie Size      Disc Size       Bitrate Bitrate Main Audio Track                          Secondary Audio Track
-----                                                           ------  ------- --------------  --------------  ------- ------- ------------------                        ---------------------
00004.MPLS                                                      MPEG-2  0:05:34 0               19,512,926,152  0.00    0.00    LPCM 2.0 2304Kbps (48kHz/24-bit)          


DISC INFO:

Disc Label:     One Desire 2021 - One Night Only - BD
Disc Size:      19,512,926,152 bytes
Protection:     AACS
BDInfo:         0.7.5.5

PLAYLIST REPORT:

Name:                   00004.MPLS
Length:                 0:05:34.166 (h:m:s.ms)
Size:                   0 bytes
Total Bitrate:          0.00 Mbps

VIDEO:

Codec                   Bitrate             Description     
-----                   -------             -----------     
MPEG-2 Video            0 kbps              1080p / 24 fps / 16:9

AUDIO:

Codec                           Language        Bitrate         Description     
-----                           --------        -------         -----------     
LPCM Audio                      Undetermined    2304 kbps       2.0 / 48 kHz /  2304 kbps / 24-bit

FILES:

Name            Time In         Length          Size            Total Bitrate   
----            -------         ------          ----            -------------   
00004.M2TS      0:00:00.000     0:05:34.166     0               0               

CHAPTERS:

Number          Time In         Length          Avg Video Rate  Max 1-Sec Rate  Max 1-Sec Time  Max 5-Sec Rate  Max 5-Sec Time  Max 10Sec Rate  Max 10Sec Time  Avg Frame Size  Max Frame Size  Max Frame Time  
------          -------         ------          --------------  --------------  --------------  --------------  --------------  --------------  --------------  --------------  --------------  --------------  
1               0:00:00.000     0:01:18.916     0 kbps          0 kbps          00:00:00.000    0 kbps          00:00:00.000    0 kbps          00:00:00.000    0 bytes         0 bytes         00:00:00.000    
2               0:01:18.916     0:01:22.291     0 kbps          0 kbps          00:00:00.000    0 kbps          00:00:00.000    0 kbps          00:00:00.000    0 bytes         0 bytes         00:00:00.000    
3               0:02:41.208     0:01:12.291     0 kbps          0 kbps          00:00:00.000    0 kbps          00:00:00.000    0 kbps          00:00:00.000    0 bytes         0 bytes         00:00:00.000    
4               0:03:53.500     0:01:40.666     0 kbps          0 kbps          00:00:00.000    0 kbps          00:00:00.000    0 kbps          00:00:00.000    0 bytes         0 bytes         00:00:00.000    

STREAM DIAGNOSTICS:

File            PID             Type            Codec           Language                Seconds                 Bitrate                 Bytes           Packets         
----            ---             ----            -----           --------                --------------          --------------          -------------   -----           
00004.M2TS      4113 (0x1011)   0x02            MPEG-2                                  0                       0                       0               0               
00004.M2TS      4352 (0x1100)   0x80            LPCM            und (Undetermined)      0                       0                       0               0               

<–– END FORUMS PASTE ––>

QUICK SUMMARY:

Disc Label: One Desire 2021 - One Night Only - BD
Disc Size: 19,512,926,152 bytes
Protection: AACS
Playlist: 00004.MPLS
Size: 0 bytes
Length: 0:05:34.166
Total Bitrate: 0.00 Mbps
Video: MPEG-2 Video / 0 kbps / 1080p / 24 fps / 16:9
Audio: Undetermined / LPCM Audio / 2.0 / 48 kHz / 2304 kbps / 24-bit


********************
PLAYLIST: 00001.MPLS
********************

<–- BEGIN FORUMS PASTE –->
                                                                                                                Total   Video                                             
Title                                                           Codec   Length  Movie Size      Disc Size       Bitrate Bitrate Main Audio Track                          Secondary Audio Track
-----                                                           ------  ------- --------------  --------------  ------- ------- ------------------                        ---------------------
00001.MPLS                                                      MPEG-2  0:02:29 0               19,512,926,152  0.00    0.00    LPCM 2.0 1536Kbps (48kHz/16-bit)          


DISC INFO:

Disc Label:     One Desire 2021 - One Night Only - BD
Disc Size:      19,512,926,152 bytes
Protection:     AACS
BDInfo:         0.7.5.5

PLAYLIST REPORT:

Name:                   00001.MPLS
Length:                 0:02:29.549 (h:m:s.ms)
Size:                   0 bytes
Total Bitrate:          0.00 Mbps

VIDEO:

Codec                   Bitrate             Description     
-----                   -------             -----------     
MPEG-2 Video            0 kbps              1080p / 24 fps / 16:9

AUDIO:

Codec                           Language        Bitrate         Description     
-----                           --------        -------         -----------     
LPCM Audio                      Undetermined    1536 kbps       2.0 / 48 kHz /  1536 kbps / 16-bit

SUBTITLES:

Codec                           Language        Bitrate         Description     
-----                           --------        -------         -----------     
Interactive Graphics            Undetermined    0.000 kbps                      

FILES:

Name            Time In         Length          Size            Total Bitrate   
----            -------         ------          ----            -------------   
00001.M2TS      0:00:00.000     0:02:29.549     0               0               

CHAPTERS:

Number          Time In         Length          Avg Video Rate  Max 1-Sec Rate  Max 1-Sec Time  Max 5-Sec Rate  Max 5-Sec Time  Max 10Sec Rate  Max 10Sec Time  Avg Frame Size  Max Frame Size  Max Frame Time  
------          -------         ------          --------------  --------------  --------------  --------------  --------------  --------------  --------------  --------------  --------------  --------------  
1               0:00:00.000     0:02:29.549     0 kbps          0 kbps          00:00:00.000    0 kbps          00:00:00.000    0 kbps          00:00:00.000    0 bytes         0 bytes         00:00:00.000    

STREAM DIAGNOSTICS:

File            PID             Type            Codec           Language                Seconds                 Bitrate                 Bytes           Packets         
----            ---             ----            -----           --------                --------------          --------------          -------------   -----           
00001.M2TS      4113 (0x1011)   0x02            MPEG-2                                  0                       0                       0               0               
00001.M2TS      4352 (0x1100)   0x80            LPCM            und (Undetermined)      0                       0                       0               0               
00001.M2TS      5120 (0x1400)   0x91            IGS             und (Undetermined)      0                       0                       0               0               

<–– END FORUMS PASTE ––>

QUICK SUMMARY:

Disc Label: One Desire 2021 - One Night Only - BD
Disc Size: 19,512,926,152 bytes
Protection: AACS
Playlist: 00001.MPLS
Size: 0 bytes
Length: 0:02:29.549
Total Bitrate: 0.00 Mbps
Video: MPEG-2 Video / 0 kbps / 1080p / 24 fps / 16:9
Audio: Undetermined / LPCM Audio / 2.0 / 48 kHz / 1536 kbps / 16-bit
Subtitle: Undetermined / 0.000 kbps


********************
PLAYLIST: 00003.MPLS
********************

<–- BEGIN FORUMS PASTE –->
                                                                                                                Total   Video                                             
Title                                                           Codec   Length  Movie Size      Disc Size       Bitrate Bitrate Main Audio Track                          Secondary Audio Track
-----                                                           ------  ------- --------------  --------------  ------- ------- ------------------                        ---------------------
00003.MPLS                                                      MPEG-2  0:02:13 0               19,512,926,152  0.00    0.00                                              


DISC INFO:

Disc Label:     One Desire 2021 - One Night Only - BD
Disc Size:      19,512,926,152 bytes
Protection:     AACS
BDInfo:         0.7.5.5

PLAYLIST REPORT:

Name:                   00003.MPLS
Length:                 0:02:13.208 (h:m:s.ms)
Size:                   0 bytes
Total Bitrate:          0.00 Mbps

VIDEO:

Codec                   Bitrate             Description     
-----                   -------             -----------     
MPEG-2 Video            0 kbps              1080p / 24 fps / 16:9

SUBTITLES:

Codec                           Language        Bitrate         Description     
-----                           --------        -------         -----------     
Interactive Graphics            Undetermined    0.000 kbps                      

FILES:

Name            Time In         Length          Size            Total Bitrate   
----            -------         ------          ----            -------------   
00003.M2TS      0:00:00.000     0:02:13.208     0               0               

CHAPTERS:

Number          Time In         Length          Avg Video Rate  Max 1-Sec Rate  Max 1-Sec Time  Max 5-Sec Rate  Max 5-Sec Time  Max 10Sec Rate  Max 10Sec Time  Avg Frame Size  Max Frame Size  Max Frame Time  
------          -------         ------          --------------  --------------  --------------  --------------  --------------  --------------  --------------  --------------  --------------  --------------  
1               0:00:00.000     0:02:13.208     0 kbps          0 kbps          00:00:00.000    0 kbps          00:00:00.000    0 kbps          00:00:00.000    0 bytes         0 bytes         00:00:00.000    

STREAM DIAGNOSTICS:

File            PID             Type            Codec           Language                Seconds                 Bitrate             			  		   	  			     	 			   		  	   		      		 			  	 			   		   	  		  	   			  	  	 			   		   	  		  		  		  					     Bytes           Packets         
----            ---             ----            -----           --------                --------------          --------------          -------------   -----           
00003.M2TS      4113 (0x1011)   0x02            MPEG-2                                  0                       0                       0               0               
00003.M2TS      5120 (0x1400)   0x91            IGS             und (Undetermined)      0                       0                       0               0               

<–– END FORUMS PASTE ––>

QUICK SUMMARY:

Disc Label: One Desire 2021 - One Night Only - BD
Disc Size: 19,512,926,152 bytes
Protection: AACS
Playlist: 00003.MPLS
Size: 0 bytes
Length: 0:02:13.208
Total Bitrate: 0.00 Mbps
Video: MPEG-2 Video / 0 kbps / 1080p / 24 fps / 16:9
Subtitle: Undetermined / 0.000 kbps


********************
PLAYLIST: 00005.MPLS
********************

<–- BEGIN FORUMS PASTE –->
                                                                                                                Total   Video                                             
Title                                                           Codec   Length  Movie Size      Disc Size       Bitrate Bitrate Main Audio Track                          Secondary Audio Track
-----                                                           ------  ------- --------------  --------------  ------- ------- ------------------                        ---------------------
00005.MPLS                                                      MPEG-2  0:02:13 0               19,512,926,152  0.00    0.00                                              


DISC INFO:

Disc Label:     One Desire 2021 - One Night Only - BD
Disc Size:      19,512,926,152 bytes
Protection:     AACS
BDInfo:         0.7.5.5

PLAYLIST REPORT:

Name:                   00005.MPLS
Length:                 0:02:13.208 (h:m:s.ms)
Size:                   0 bytes
Total Bitrate:          0.00 Mbps

VIDEO:

Codec                   Bitrate             Description     
-----                   -------             -----------     
MPEG-2 Video            0 kbps              1080p / 24 fps / 16:9

SUBTITLES:

Codec                           Language        Bitrate         Description     
-----                           --------        -------         -----------     
Interactive Graphics            Undetermined    0.000 kbps                      

FILES:

Name            Time In         Length          Size            Total Bitrate   
----            -------         ------          ----            -------------   
00005.M2TS      0:00:00.000     0:02:13.208     0               0               

CHAPTERS:

Number          Time In         Length          Avg Video Rate  Max 1-Sec Rate  Max 1-Sec Time  Max 5-Sec Rate  Max 5-Sec Time  Max 10Sec Rate  Max 10Sec Time  Avg Frame Size  Max Frame Size  Max Frame Time  
------          -------         ------          --------------  --------------  --------------  --------------  --------------  --------------  --------------  --------------  --------------  --------------  
1               0:00:00.000     0:02:13.208     0 kbps          0 kbps          00:00:00.000    0 kbps          00:00:00.000    0 kbps          00:00:00.000    0 bytes         0 bytes         00:00:00.000    

STREAM DIAGNOSTICS:

File            PID             Type            Codec           Language                Seconds                 Bitrate                 Bytes           Packets         
----            ---             ----            -----           --------                --------------          --------------          -------------   -----           
00005.M2TS      4113 (0x1011)   0x02            MPEG-2                                  0                       0                       0               0               
00005.M2TS      5120 (0x1400)   0x91            IGS             und (Undetermined)      0                       0                       0               0               

<–– END FORUMS PASTE ––>

QUICK SUMMARY:

Disc Label: One Desire 2021 - One Night Only - BD
Disc Size: 19,512,926,152 bytes
Protection: AACS
Playlist: 00005.MPLS
Size: 0 bytes
Length: 0:02:13.208
Total Bitrate: 0.00 Mbps
Video: MPEG-2 Video / 0 kbps / 1080p / 24 fps / 16:9
Subtitle: Undetermined / 0.000 kbps



One Desire - One Night Only: Live In Helsinki (2021)

One Desire - One Night Only: Live In Helsinki (2021)

One Desire - One Night Only: Live In Helsinki (2021)

One Desire - One Night Only: Live In Helsinki (2021)

One Desire - One Night Only: Live In Helsinki (2021)

All thanks go to the original releaser

One Desire in my Blog

Download One Desire - One Night Only: Live In Helsinki (2021):