Tags
Language
Tags

Orpheus Chamber Orchestra Complete Recordings on Deutsche Grammophon [55CDs] Part 2 (2021)

Posted By: ArlegZ
Orpheus Chamber Orchestra Complete Recordings on Deutsche Grammophon [55CDs] Part 2 (2021)

Orpheus Chamber Orchestra Complete Recordings on Deutsche Grammophon [55CDs] Part 2 (2021)
EAC | FLAC | Image (Cue & Log) ~ 768 Mb | Total time: 03:07:18 | Scans included
Classical | Label: Deutsche Grammophon | # 483 9948 | Recorded: 1982-2018

Anticipating the 50th anniversary of Orpheus Chamber Orchestra in 2022, we present their complete recordings on DG. The intriguing sound culture of Orpheus, especially of the string section, is often explained as a result of the cooperative mindset of the orchestra and its artistic process of rehearsing.
Orpheus' rich and varied discography on Deutsche Grammophon includes stunning recordings with Martha Argerich, Gidon Kremer, Mischa Maisky, Jan Lisiecki and Gil Shaham. The new edition also includes a brand new recording of Mendelssohn’s Italian Symphony from 2018. 14 albums from the box set are made available digitally for the first time.

Performer:
Mischa Maisky, cello (Vivaldi, Boccherini)
Orpheus Chamber Orchestra

Contents:
CD 4 VIVALDI · BOCCHERINI: Cello Concertos
CD 5 COPLAND: Appalachian Spring · Short Symphony
CD 6 DVOŘÁK: Serenades


CD 04 [72:34]
ANTONIO VIVALDI (1678-1741)
Cello Concerto in A minor, R.418
01. 1. Allegro
02. 2. Largo
03. 3. Allegro
Cello Concerto in B minor, R.424
04. 1. Allegro non molto
05. 2. Largo
06. 3. Allegro
Cello Concerto in C minor, R.401
07. 1. Allegro non molto
08. 2. Adagio
09. 3. Allegro ma non molto
10. Cello Concerto in A minor, RV 422: 2. Largo
LUIGI BOCCHERINI (1743-1805)
11. String Quintet in E major, G 275: 3. Minuetto. Con un poco di molto - Trio
Concerto for Cello & Orchestra No.6 in D major, G 479
12. 1. Allegro
13. 2. Adagio
14. 3. Allegro assai
Cello Concerto No.7 in G major, G 480
15. 1. Allegro
16. 2. Adagio
17. 3. Allegro

Mischa Maisky, cello

CD 05 [61:04]
AARON COPLAND (1900-1990)
01. Appalachian Spring (Suite)
Short Symphony (No.2)
02. 1. Tempo = 144 (incisivo)
03. 2. Tempo = circa 44
04. 3. Tempo = 144 (preciso e ritmico)
05. Quiet City
Three Latin American Sketches
06. 1. Estribillo Bold, sharply accented
07. 2. Paisaje Mexicano. Soft and sad, in a moderate tempo
08. 3. Danza de Jalisco Lively and fast

CD 06 [53:40]
ANTONÍN DVOŘÁK (1841-1904)
Serenade for Strings in E major, Op.22
01. 1. Moderato
02. 2. Tempo di valse
03. 3. Scherzo. Vivace
04. 4. Larghetto
05. 5. Finale. Allegro vivace
Serenade for Wind in D minor, Op.44
06. 1. Moderato, quasi Marcia
07. 2. Minuetto. Tempo di Minuetto - Trio. Presto
08. 3. Andante con moto
09. 4. Finale. Allegro molto - Moderato, quasi tempo di marcia - Allegro molto



Exact Audio Copy V1.6 from 23. October 2020

EAC extraction logfile from 19. September 2021, 15:31

Mischa Maisky, Orpheus Chamber Orchestra / Vivaldi, Boccherini - Cello Concertos

Used drive : PIONEER DVD-RW DVR-218L Adapter: 1 ID: 0

Read mode : Secure
Utilize accurate stream : Yes
Defeat audio cache : Yes
Make use of C2 pointers : No

Read offset correction : 6
Overread into Lead-In and Lead-Out : No
Fill up missing offset samples with silence : Yes
Delete leading and trailing silent blocks : No
Null samples used in CRC calculations : Yes
Used interface : Native Win32 interface for Win NT & 2000

Used output format : User Defined Encoder
Selected bitrate : 128 kBit/s
Quality : High
Add ID3 tag : No
Command line compressor : C:\Program Files\Exact Audio Copy\Flac\flac.exe
Additional command line options : -V -8 -T "Date=%year%" -T "Genre=%genre%" %source%


TOC of the extracted CD

Track | Start | Length | Start sector | End sector
––––––––––––––––––––––––––––-
1 | 0:00.33 | 3:45.00 | 33 | 16907
2 | 3:45.33 | 3:46.00 | 16908 | 33857
3 | 7:31.33 | 2:56.00 | 33858 | 47057
4 | 10:27.33 | 3:40.00 | 47058 | 63557
5 | 14:07.33 | 3:11.00 | 63558 | 77882
6 | 17:18.33 | 3:28.00 | 77883 | 93482
7 | 20:46.33 | 4:12.00 | 93483 | 112382
8 | 24:58.33 | 3:37.00 | 112383 | 128657
9 | 28:35.33 | 3:16.00 | 128658 | 143357
10 | 31:51.33 | 4:11.00 | 143358 | 162182
11 | 36:02.33 | 4:11.00 | 162183 | 181007
12 | 40:13.33 | 6:46.00 | 181008 | 211457
13 | 46:59.33 | 5:24.00 | 211458 | 235757
14 | 52:23.33 | 4:52.00 | 235758 | 257657
15 | 57:15.33 | 6:18.00 | 257658 | 286007
16 | 63:33.33 | 4:58.00 | 286008 | 308357
17 | 68:31.33 | 4:37.00 | 308358 | 329132


Range status and errors

Selected range

Filename C:\ArlegZ\Orpheus Chamber Orchestra - Vivaldi, Boccherini - Cello Concertos.wav

Peak level 99.9 %
Extraction speed 2.1 X
Range quality 100.0 %
Test CRC A00CF4DD
Copy CRC A00CF4DD
Copy OK

No errors occurred


AccurateRip summary

Track 1 accurately ripped (confidence 6) [A7A9E582] (AR v2)
Track 2 accurately ripped (confidence 6) [BE52C74F] (AR v2)
Track 3 accurately ripped (confidence 6) [F8054AA3] (AR v2)
Track 4 accurately ripped (confidence 6) [EB929005] (AR v2)
Track 5 accurately ripped (confidence 6) [FA1100BA] (AR v2)
Track 6 accurately ripped (confidence 6) [7117423E] (AR v2)
Track 7 accurately ripped (confidence 6) [38FBEC45] (AR v2)
Track 8 accurately ripped (confidence 6) [5235B873] (AR v2)
Track 9 accurately ripped (confidence 6) [DDF44BE2] (AR v2)
Track 10 accurately ripped (confidence 6) [22B2AB3D] (AR v2)
Track 11 accurately ripped (confidence 6) [792EC150] (AR v2)
Track 12 accurately ripped (confidence 5) [4C873C95] (AR v2)
Track 13 accurately ripped (confidence 6) [385135BD] (AR v2)
Track 14 accurately ripped (confidence 6) [99939A87] (AR v2)
Track 15 accurately ripped (confidence 6) [37C5B4B3] (AR v2)
Track 16 accurately ripped (confidence 6) [746010A9] (AR v2)
Track 17 accurately ripped (confidence 6) [3B32577D] (AR v2)

All tracks accurately ripped

End of status report

–– CUETools DB Plugin V2.1.6

[CTDB TOCID: 78rTSj1_eyxA85.ES6seAK4iUmg-] found
Submit result: 78rTSj1_eyxA85.ES6seAK4iUmg- has been confirmed
Track | CTDB Status
1 | (137/143) Accurately ripped
2 | (136/143) Accurately ripped
3 | (137/143) Accurately ripped
4 | (137/143) Accurately ripped
5 | (137/143) Accurately ripped
6 | (137/143) Accurately ripped
7 | (137/143) Accurately ripped
8 | (137/143) Accurately ripped
9 | (137/143) Accurately ripped
10 | (137/143) Accurately ripped
11 | (137/143) Accurately ripped
12 | (136/143) Accurately ripped
13 | (137/143) Accurately ripped
14 | (137/143) Accurately ripped
15 | (135/143) Accurately ripped
16 | (137/143) Accurately ripped
17 | (136/143) Accurately ripped


==== Log checksum 3281A7C36E1B6AD0B3970E7E30A1A66531C7A480ED1835F804E23440ABF3148F ====


Exact Audio Copy V1.6 from 23. October 2020

EAC extraction logfile from 19. September 2021, 16:48

Orpheus Chamber Orchestra / Copland - Appalachian Spring

Used drive : PIONEER DVD-RW DVR-218L Adapter: 1 ID: 0

Read mode : Secure
Utilize accurate stream : Yes
Defeat audio cache : Yes
Make use of C2 pointers : No

Read offset correction : 6
Overread into Lead-In and Lead-Out : No
Fill up missing offset samples with silence : Yes
Delete leading and trailing silent blocks : No
Null samples used in CRC calculations : Yes
Used interface : Native Win32 interface for Win NT & 2000

Used output format : User Defined Encoder
Selected bitrate : 128 kBit/s
Quality : High
Add ID3 tag : No
Command line compressor : C:\Program Files\Exact Audio Copy\Flac\flac.exe
Additional command line options : -V -8 -T "Date=%year%" -T "Genre=%genre%" %source%


TOC of the extracted CD

Track | Start | Length | Start sector | End sector
––––––––––––––––––––––––––––-
1 | 0:00.33 | 25:37.52 | 33 | 115359
2 | 25:38.10 | 4:26.73 | 115360 | 135382
3 | 30:05.08 | 5:26.67 | 135383 | 159899
4 | 35:32.00 | 5:56.13 | 159900 | 186612
5 | 41:28.13 | 9:36.70 | 186613 | 229882
6 | 51:05.08 | 3:11.25 | 229883 | 244232
7 | 54:16.33 | 3:32.52 | 244233 | 260184
8 | 57:49.10 | 3:38.58 | 260185 | 276592


Range status and errors

Selected range

Filename C:\ArlegZ\Orpheus Chamber Orchestra - Copland - Appalachian Spring.wav

Peak level 92.3 %
Extraction speed 1.9 X
Range quality 100.0 %
Test CRC 4850A9E3
Copy CRC 4850A9E3
Copy OK

No errors occurred


AccurateRip summary

Track 1 accurately ripped (confidence 7) [FD065F30] (AR v2)
Track 2 accurately ripped (confidence 7) [B4929737] (AR v2)
Track 3 accurately ripped (confidence 7) [BDD42E43] (AR v2)
Track 4 accurately ripped (confidence 7) [5171B702] (AR v2)
Track 5 accurately ripped (confidence 7) [40DF0477] (AR v2)
Track 6 accurately ripped (confidence 7) [643A62AB] (AR v2)
Track 7 accurately ripped (confidence 7) [B919460F] (AR v2)
Track 8 accurately ripped (confidence 7) [A1EF95A6] (AR v2)

All tracks accurately ripped

End of status report

–– CUETools DB Plugin V2.1.6

[CTDB TOCID: rtjGsqLBphRiM_cx8pQRg90HtzA-] found
Submit result: rtjGsqLBphRiM_cx8pQRg90HtzA- has been confirmed
Track | CTDB Status
1 | (149/153) Accurately ripped
2 | (150/153) Accurately ripped
3 | (117/153) Accurately ripped, or (32/153) differs in 97 samples @02:52:65
4 | (148/153) Accurately ripped
5 | (150/153) Accurately ripped
6 | (150/153) Accurately ripped
7 | (149/153) Accurately ripped
8 | (148/153) Accurately ripped


==== Log checksum 66FB9CA83FC64032BD069986BB754FBD8A7934C00C542CD0114EFBAD5DFAD755 ====


Exact Audio Copy V1.6 from 23. October 2020

EAC extraction logfile from 19. September 2021, 18:05

Orpheus Chamber Orchestra / Dvořák - Serenades Opp. 22 & 44

Used drive : PIONEER DVD-RW DVR-218L Adapter: 1 ID: 0

Read mode : Secure
Utilize accurate stream : Yes
Defeat audio cache : Yes
Make use of C2 pointers : No

Read offset correction : 6
Overread into Lead-In and Lead-Out : No
Fill up missing offset samples with silence : Yes
Delete leading and trailing silent blocks : No
Null samples used in CRC calculations : Yes
Used interface : Native Win32 interface for Win NT & 2000

Used output format : User Defined Encoder
Selected bitrate : 128 kBit/s
Quality : High
Add ID3 tag : No
Command line compressor : C:\Program Files\Exact Audio Copy\Flac\flac.exe
Additional command line options : -V -8 -T "Date=%year%" -T "Genre=%genre%" %source%


TOC of the extracted CD

Track | Start | Length | Start sector | End sector
––––––––––––––––––––––––––––-
1 | 0:00.33 | 4:52.52 | 33 | 21984
2 | 4:53.10 | 6:55.43 | 21985 | 53152
3 | 11:48.53 | 5:13.02 | 53153 | 76629
4 | 17:01.55 | 5:25.15 | 76630 | 101019
5 | 22:26.70 | 5:53.38 | 101020 | 127532
6 | 28:20.33 | 4:21.12 | 127533 | 147119
7 | 32:41.45 | 6:21.40 | 147120 | 175734
8 | 39:03.10 | 9:12.05 | 175735 | 217139
9 | 48:15.15 | 5:56.43 | 217140 | 243882


Range status and errors

Selected range

Filename C:\ArlegZ\Orpheus Chamber Orchestra - Dvořák - Serenades Opp. 22 & 44.wav

Peak level 100.0 %
Extraction speed 1.8 X
Range quality 100.0 %
Test CRC 28A19268
Copy CRC 28A19268
Copy OK

No errors occurred


AccurateRip summary

Track 1 accurately ripped (confidence 3) [B4816C99] (AR v1)
Track 2 accurately ripped (confidence 3) [E90B92E8] (AR v1)
Track 3 accurately ripped (confidence 3) [888EB7F1] (AR v1)
Track 4 accurately ripped (confidence 3) [1AB83DC2] (AR v1)
Track 5 accurately ripped (confidence 3) [C9D35354] (AR v1)
Track 6 accurately ripped (confidence 3) [D4E6B05C] (AR v1)
Track 7 accurately ripped (confidence 3) [6F45F8A3] (AR v1)
Track 8 accurately ripped (confidence 3) [D80C2772] (AR v1)
Track 9 accurately ripped (confidence 3) [A0631C5F] (AR v1)

All tracks accurately ripped

End of status report

–– CUETools DB Plugin V2.1.6

[CTDB TOCID: gtMK7vrq4qUwFIjs8SizBklhKgo-] found
Submit result: gtMK7vrq4qUwFIjs8SizBklhKgo- has been confirmed, gtMK7vrq4qUwFIjs8SizBklhKgo- has been confirmed
Track | CTDB Status
1 | (144/144) Accurately ripped
2 | (144/144) Accurately ripped
3 | (144/144) Accurately ripped
4 | (144/144) Accurately ripped
5 | (144/144) Accurately ripped
6 | (144/144) Accurately ripped
7 | (143/144) Accurately ripped
8 | (143/144) Accurately ripped
9 | (142/144) Accurately ripped


==== Log checksum 6559DE5EC5999F0E7FD9811825B1BAF8C9DFA753FF657D068AF157C67D015F0A ====


Orpheus Chamber Orchestra Complete Recordings on Deutsche Grammophon [55CDs] Part 2 (2021)