Subcategories
Tags
Language
Tags

Orrenmaa Band+Billy Cobham & Tower Of Power Horns - Make My Day (2008) {Nordic Notes}

Posted By: tiburon
Orrenmaa Band+Billy Cobham & Tower Of Power Horns - Make My Day (2008) {Nordic Notes}

Orrenmaa Band+Billy Cobham & Tower Of Power Horns - Make My Day (2008) {Nordic Notes}
EAC 0.99pb5 | FLAC tracks level 8 | Cue+Log+M3U | Full Scans 300dpi | 451MB + 5% Recovery
MP3 CBR 320 Kbps | 160MB + 5% Recovery
Genre: Jazz-Funk, Fusion

Fusion jazz is a genre I would normally not expect to come from arctic Finland. Guitarist Tuppu Orrenmaa must have decided to hit it really big on his third album with his Orrenmaa Band, hiring a genuine who-is-who of the international jazz scene. All drums on Make My Day were played by the legendary Billy Cobham, who should be known even to novices for his collaborations with artists like Miles Davis and Mahavishnu Orchestra. The horns section of Tower Of Power, another American collective of artists with cult status, can be heard on six songs. This is also the first time they can be heard together with Billy Cobham on a record.
Track List
01. Make My Day 4:04
02. Cape Fire 6:46
03. Rhythm Alley Bros 7:13
04. Ms Bean 5:21
05. Pondering Star 1:20
06. Sunday Without A Ride 3:51
07. Take 15 2:34
08. Skyline 4:14
09. Broken Wheel Ranch 3:44
10. Cowlick 4:17
11. Helsinki Floating 7:23
12. (A Quiet Guy Called) Jimi 4:51
13. Heavy Pop 12:34

musicians
Tuomo Orrenmaa - 6 and 12 string electric guitar
Billy Cobham - drums
Pekka Pohjola - bass
Verneri Pohjola - trumpet,flugelhorn
Bob Dominis - keyboards
Pekka Tyni - keyboards
Timo Pratskin - keyboards

Tower Of Power Horns:
Emilio Castillo - tenor sax
Stephen Kupka - baritone sax
Tom Politzer - tenor sax
Mike Bogart - trumpet
Adolfo Acosta - trumpet


Exact Audio Copy V0.99 prebeta 5 from 4. May 2009

EAC extraction logfile from 18. November 2010, 11:53

Orrenmaa Band / Make My Day

Used drive : PLEXTOR CD-R PREMIUM2 Adapter: 1 ID: 1

Read mode : Secure
Utilize accurate stream : Yes
Defeat audio cache : Yes
Make use of C2 pointers : No

Read offset correction : 30
Overread into Lead-In and Lead-Out : Yes
Fill up missing offset samples with silence : Yes
Delete leading and trailing silent blocks : No
Null samples used in CRC calculations : Yes
Used interface : Installed external ASPI interface
Gap handling : Appended to previous track

Used output format : User Defined Encoder
Selected bitrate : 32 kBit/s
Quality : High
Add ID3 tag : No
Command line compressor : C:\Programmi\FLAC\flac.exe
Additional command line options : -8 -V -T "ARTIST=%a" -T "TITLE=%t" -T "ALBUM=%g" -T "DATE=%y" -T "TRACKNUMBER=%n" -T "GENRE=%m" -T "COMMENT=EAC FLAC -8" %s


TOC of the extracted CD

Track | Start | Length | Start sector | End sector
––––––––––––––––––––––––––––-
1 | 0:00.00 | 4:04.51 | 0 | 18350
2 | 4:04.51 | 6:46.67 | 18351 | 48867
3 | 10:51.43 | 7:14.72 | 48868 | 81489
4 | 18:06.40 | 5:23.04 | 81490 | 105718
5 | 23:29.44 | 1:19.64 | 105719 | 111707
6 | 24:49.33 | 3:53.35 | 111708 | 129217
7 | 28:42.68 | 2:35.47 | 129218 | 140889
8 | 31:18.40 | 4:16.27 | 140890 | 160116
9 | 35:34.67 | 3:45.48 | 160117 | 177039
10 | 39:20.40 | 4:20.29 | 177040 | 196568
11 | 43:40.69 | 7:24.54 | 196569 | 229922
12 | 51:05.48 | 4:53.01 | 229923 | 251898
13 | 55:58.49 | 8:00.70 | 251899 | 287968


Track 1

Filename D:\My Rip\01 - Make My Day.wav

Pre-gap length 0:00:02.00

Peak level 98.8 %
Track quality 100.0 %
Test CRC 8C5C3E74
Copy CRC 8C5C3E74
Track not present in AccurateRip database
Copy OK

Track 2

Filename D:\My Rip\02 - Cape Fire.wav

Pre-gap length 0:00:01.00

Peak level 93.3 %
Track quality 100.0 %
Test CRC 504CC53C
Copy CRC 504CC53C
Track not present in AccurateRip database
Copy OK

Track 3

Filename D:\My Rip\03 - Rhythm Alley Bros.wav

Pre-gap length 0:00:01.00

Peak level 95.4 %
Track quality 100.0 %
Test CRC 5E4ECEAC
Copy CRC 5E4ECEAC
Track not present in AccurateRip database
Copy OK

Track 4

Filename D:\My Rip\04 - Ms Bean.wav

Pre-gap length 0:00:02.00

Peak level 98.8 %
Track quality 100.0 %
Test CRC C7501F4E
Copy CRC C7501F4E
Track not present in AccurateRip database
Copy OK

Track 5

Filename D:\My Rip\05 - Pondering Star.wav

Pre-gap length 0:00:02.00

Peak level 74.1 %
Track quality 100.0 %
Test CRC 1A09C8EE
Copy CRC 1A09C8EE
Track not present in AccurateRip database
Copy OK

Track 6

Filename D:\My Rip\06 - Sunday Without A Ride.wav

Peak level 79.4 %
Track quality 100.0 %
Test CRC C2D11F94
Copy CRC C2D11F94
Track not present in AccurateRip database
Copy OK

Track 7

Filename D:\My Rip\07 - Take 15.wav

Pre-gap length 0:00:02.00

Peak level 95.4 %
Track quality 100.0 %
Test CRC 845F6710
Copy CRC 845F6710
Track not present in AccurateRip database
Copy OK

Track 8

Filename D:\My Rip\08 - Skyline.wav

Pre-gap length 0:00:01.00

Peak level 95.4 %
Track quality 99.9 %
Test CRC DE998F86
Copy CRC DE998F86
Track not present in AccurateRip database
Copy OK

Track 9

Filename D:\My Rip\09 - Broken Wheel Ranch.wav

Pre-gap length 0:00:02.00

Peak level 98.8 %
Track quality 100.0 %
Test CRC 1A54F102
Copy CRC 1A54F102
Track not present in AccurateRip database
Copy OK

Track 10

Filename D:\My Rip\10 - Cowlick.wav

Pre-gap length 0:00:01.00

Peak level 98.8 %
Track quality 100.0 %
Test CRC C6C79D03
Copy CRC C6C79D03
Track not present in AccurateRip database
Copy OK

Track 11

Filename D:\My Rip\11 - Helsinki Floating.wav

Pre-gap length 0:00:03.00

Peak level 91.1 %
Track quality 100.0 %
Test CRC 27E728C4
Copy CRC 27E728C4
Track not present in AccurateRip database
Copy OK

Track 12

Filename D:\My Rip\12 - (A Quiet Guy Called) Jimi.wav

Pre-gap length 0:00:02.00

Peak level 98.8 %
Track quality 100.0 %
Test CRC 34B99807
Copy CRC 34B99807
Track not present in AccurateRip database
Copy OK

Track 13

Filename D:\My Rip\13 - Heavy Pop.wav

Pre-gap length 0:00:02.00

Peak level 98.8 %
Track quality 100.0 %
Test CRC 14586119
Copy CRC 14586119
Track not present in AccurateRip database
Copy OK


None of the tracks are present in the AccurateRip database

No errors occurred

End of status report

Orrenmaa Band+Billy Cobham & Tower Of Power Horns - Make My Day (2008) {Nordic Notes}
Orrenmaa Band+Billy Cobham & Tower Of Power Horns - Make My Day (2008) {Nordic Notes}


Thanks to the original ripper