Tags
Language
Tags

Oscar Peterson - Digital At Montreux (1980)

Posted By: gribovar
Oscar Peterson - Digital At Montreux (1980)

Oscar Peterson - Digital At Montreux (1980)
EAC Rip | FLAC (image+.cue+log) - 172 MB | MP3 CBR 320 kbps (LAME 3.93) - 102 MB | Covers (7 MB) included
Genre: Jazz, Piano Jazz | RAR 3% Rec. | Label: Pablo (00025218022422)

The title is pretty generic but this duet set from pianist Oscar Peterson and bassist Niels Pedersen has plenty of excellent music from two of the best. Peterson and Pedersen perform six standards and a well-conceived five-song Duke Ellington medley. Few real surprises occur but the duo plays up to one's high expectations.
Tracklist:
01. Old Folks
02. Soft Winds
03. (Back Home Again In) Indiana
04. That's All
05. Younger Than Springtime
06. Ellington Medley:
Caravan
Rockin' In Rhythm
C-Jam Blues
(In My) Solitude
Satin Doll
Caravan (Reprise)
07. On The Trail

Total time: 40:38

Exact Audio Copy V0.99 prebeta 5 from 4. May 2009

Отчёт EAC об извлечении, выполненном 7. июня 2013, 2:23

Oscar Peterson / Digital at Montreux

Дисковод: Optiarc DVD RW AD-7173A Adapter: 3 ID: 0

Режим чтения : Достоверность
Использование точного потока : Да
Отключение кэша аудио : Да
Использование указателей C2 : Нет

Коррекция смещения при чтении : 48
Способность читать области Lead-in и Lead-out : Нет
Заполнение пропущенных сэмплов тишиной : Да
Удаление блоков с тишиной в начале и конце : Нет
При вычислениях CRC использовались нулевые сэмплы : Нет
Интерфейс : Установленный внешний ASPI-интерфейс

Выходной формат : Внутренние WAV-операции
Формат сэмплов : 44.100 Гц; 16 бит; стерео


TOC извлечённого CD

Трек | Старт | Длительность | Начальный сектор | Конечный сектор
––––––––––––––––––––––––––––––––––-
1 | 0:00.00 | 5:29.32 | 0 | 24706
2 | 5:29.32 | 5:43.65 | 24707 | 50496
3 | 11:13.22 | 5:09.40 | 50497 | 73711
4 | 16:22.62 | 3:02.20 | 73712 | 87381
5 | 19:25.07 | 4:45.00 | 87382 | 108756
6 | 24:10.07 | 7:36.63 | 108757 | 143019
7 | 31:46.70 | 8:51.22 | 143020 | 182866


Характеристики диапазона извлечения и сообщения об ошибках

Выбранный диапазон

Имя файла C:\Documents and Settings\DAce\Мои документы\Моя музыка\WAV\Oscar Peterson - Digital at Montreux.wav

Пиковый уровень 68.0 %
Качество диапазона 100.0 %
CRC теста B36C9D34
CRC копии B36C9D34
Копирование… OK

Ошибок не произошло


AccurateRip: сводка

Трек 1 нет в базе данных
Трек 2 нет в базе данных
Трек 3 нет в базе данных
Трек 4 нет в базе данных
Трек 5 нет в базе данных
Трек 6 нет в базе данных
Трек 7 нет в базе данных

Ни одного трека нет в базе AccurateRip

Конец отчёта

[CUETools log; Date: 08.05.2019 11:35:47; Version: 2.1.4]
[CTDB TOCID: YM1Pb6hSUibMFivBmJ4N4xJAj_s-] found.
Track | CTDB Status
1 | (11/11) Accurately ripped
2 | (11/11) Accurately ripped
3 | (11/11) Accurately ripped
4 | (11/11) Accurately ripped
5 | (11/11) Accurately ripped
6 | (11/11) Accurately ripped
7 | (11/11) Accurately ripped
[AccurateRip ID: 000a3cde-003dc982-5d098607] found.
Track [ CRC | V2 ] Status
01 [26982e11|1be51b1c] (00+04/09) Accurately ripped
02 [06ce7f7d|3ee2d4b3] (00+04/10) Accurately ripped
03 [db1f57fd|31c7f6f2] (00+04/10) Accurately ripped
04 [8781b871|2c0d60ce] (00+04/10) Accurately ripped
05 [dffaffbc|b79aa5e1] (00+04/10) Accurately ripped
06 [53a9a8a4|649ecebb] (00+04/09) Accurately ripped
07 [e773f377|6a731a41] (00+04/10) Accurately ripped
Offsetted by 983:
01 [157d452e] (02/09) Accurately ripped
02 [84703c9d] (02/10) Accurately ripped
03 [a07fca93] (02/10) Accurately ripped
04 [6b114740] (02/10) Accurately ripped
05 [ad8a3359] (02/10) Accurately ripped
06 [977c2594] (02/09) Accurately ripped
07 [74cf499b] (02/10) Accurately ripped

Track Peak [ CRC32 ] [W/O NULL] [ LOG ]
– 68,0 [FBA7D0DD] [B36C9D34] W/O NULL
01 65,1 [D6786418] [481DD8B7]
02 67,7 [C9FC34FD] [35558322]
03 68,0 [76545A59] [7F9349D3]
04 41,1 [5D84A58C] [5F8D47F9]
05 49,4 [E048CBB3] [8495A07B]
06 47,3 [C818DA09] [97ADDE96]
07 49,1 [9C5423E8] [14B96E51]

Thanks to the original releaser

See also:

Oscar Peterson - Songbooks Etcetera [10CD Box Set] (2005)
The Oscar Peterson Trio - A Jazz Portrait Of Frank Sinatra (1959)
Oscar Peterson - Plays The Jerome Kern Song Book (1959) [Reissue 2009]
Oscar Peterson - Oscar Peterso...ong Book (1959) [Reissue 1996]
Oscar Peterson Trio - West Side Story (1962) [DCC 24 KT Gold CD, 1994]
Oscar Peterson & Nelson Ri...n Riddle (1963) [Reissue 2009]
Oscar Peterson Trio - Oscar Pe...rk Terry (1964) [Reissue 2007]
Oscar Peterson - Blues Etude (1966) [Reissue 1990]
Oscar Peterson - Motions & Emotions (1969) [Reissue 2005]
Oscar Peterson & Dizzy Gil...illespie (1975) [Reissue 1987]
Ella Fitzgerald & Oscar Pe...nd Oscar (1976) [Reissue 2001]
Oscar Peterson & Count Bas...0;.Again (1978) [Reissue 2006]
Milt Jackson & Oscar Peter... Us Left (1981) [Reissue 2006]
Oscar Peterson + Stephane Grappelli - Skol (1982) [Reissue 1990]
Clark Terry, Freddie Hubbard, ...n - The Alternate Blues (1982)
Oscar Peterson - The Silver Collection [Recorded 1959-1963] (1984)
The Oscar Peterson Trio - Live And At Its Best (1990)
Oscar Peterson Trio with Ray Brown & Ed Thigpen - 1959 (1994)
Oscar Peterson - Oscar Peterso...(Verve Jazz Masters 37) (1994)
Oscar Peterson - 1945-1947 (1999)
Lionel Hampton With Oscar Peterson - Verve Jazz Masters 26 (1994)
Oscar Peterson, Ray Brown, Mil...: Live at the Blue Note (1999)
Oscar Peterson Trio - Complete...sions with Lester Young (2001)
Oscar Peterson - Stephane Grap...ol. 1-2 [Recorded 1973] (2001)
Oscar Peterson - Oscar's Ballads [Recorded 1990-2000] (2001)
Oscar Peterson - A Jazz Odyssey [Recorded 1950-1970] (2002)
Oscar Peterson - Ballads, Blue...1968-1971, 3CD Box Set] (2008)