Subcategories

Oscar Peterson & Count Basie - Satch & Josh....Again (1978) [Reissue 2006]

Posted By: gribovar
Oscar Peterson & Count Basie - Satch & Josh....Again (1978) [Reissue 2006]

Oscar Peterson & Count Basie - Satch & Josh….Again (1978) [Reissue 2006]
EAC Rip | FLAC (image+.cue+log) - 268 MB | MP3 CBR 320 kbps (LAME 3.93) - 131 MB | Covers (8 MB) included
Genre: Jazz | RAR 3% Rec. | Label: Pablo Records (0025218696029)

Recorded three years after their first full album together, this second encounter between Count Basie and Oscar Peterson on twin pianos (this time with a quartet) is as strong as the original, alternating standards with blues. Both Peterson and Basie have one number apiece on electric piano, making this album historic as well as quite musical.
Tracklist:
01. Roots
02. Red Wagon
03. Home Run
04. Sweethearts On Parade
05. Li'l Darlin'
06. The Time Is Right
07. Cherry
08. Lester Leaps In
09. She's Funny That Way
10. Lady Fitz

Total time: 51:57

Exact Audio Copy V0.99 prebeta 5 from 4. May 2009

Отчёт EAC об извлечении, выполненном 7. июня 2013, 1:49

Oscar Peterson / Satch & Josh…Again

Дисковод: Optiarc DVD RW AD-7173A Adapter: 3 ID: 0

Режим чтения : Достоверность
Использование точного потока : Да
Отключение кэша аудио : Да
Использование указателей C2 : Нет

Коррекция смещения при чтении : 48
Способность читать области Lead-in и Lead-out : Нет
Заполнение пропущенных сэмплов тишиной : Да
Удаление блоков с тишиной в начале и конце : Нет
При вычислениях CRC использовались нулевые сэмплы : Нет
Интерфейс : Установленный внешний ASPI-интерфейс

Выходной формат : Внутренние WAV-операции
Формат сэмплов : 44.100 Гц; 16 бит; стерео


TOC извлечённого CD

Трек | Старт | Длительность | Начальный сектор | Конечный сектор
––––––––––––––––––––––––––––––––––-
1 | 0:00.00 | 6:45.55 | 0 | 30429
2 | 6:45.55 | 5:38.02 | 30430 | 55781
3 | 12:23.57 | 2:40.48 | 55782 | 67829
4 | 15:04.30 | 6:38.45 | 67830 | 97724
5 | 21:43.00 | 4:29.02 | 97725 | 117901
6 | 26:12.02 | 4:31.35 | 117902 | 138261
7 | 30:43.37 | 5:52.03 | 138262 | 164664
8 | 36:35.40 | 4:53.05 | 164665 | 186644
9 | 41:28.45 | 5:41.42 | 186645 | 212261
10 | 47:10.12 | 4:46.63 | 212262 | 233774


Характеристики диапазона извлечения и сообщения об ошибках

Выбранный диапазон

Имя файла C:\Documents and Settings\DAce\Мои документы\Моя музыка\WAV\Oscar Peterson - Satch & Josh…Again.wav

Пиковый уровень 100.0 %
Качество диапазона 100.0 %
CRC теста 8089D856
CRC копии 8089D856
Копирование… OK

Ошибок не произошло


AccurateRip: сводка

Трек 1 точное извлечение (доверие 2) [0F172386]
Трек 2 точное извлечение (доверие 2) [A3768CC4]
Трек 3 точное извлечение (доверие 2) [5736316F]
Трек 4 точное извлечение (доверие 2) [9DB7EBD7]
Трек 5 точное извлечение (доверие 2) [D1C2F55B]
Трек 6 точное извлечение (доверие 2) [DE1F727E]
Трек 7 точное извлечение (доверие 2) [9347E05E]
Трек 8 точное извлечение (доверие 2) [4ED5562E]
Трек 9 точное извлечение (доверие 2) [9422057C]
Трек 10 точное извлечение (доверие 2) [A3DCA446]

Все треки извлечены точно

Конец отчёта

[CUETools log; Date: 18.01.2018 3:24:01; Version: 2.1.4]
[CTDB TOCID: f1oU25tJRFryXttcYaP.5G8OUts-] found.
Track | CTDB Status
1 | (8/8) Accurately ripped
2 | (8/8) Accurately ripped
3 | (8/8) Accurately ripped
4 | (8/8) Accurately ripped
5 | (8/8) Accurately ripped
6 | (8/8) Accurately ripped
7 | (8/8) Accurately ripped
8 | (8/8) Accurately ripped
9 | (8/8) Accurately ripped
10 | (8/8) Accurately ripped
[AccurateRip ID: 0013eabe-009dffec-890c2d0a] found.
Track [ CRC | V2 ] Status
01 [0f172386|b7776e6d] (02+03/14) Accurately ripped
02 [a3768cc4|f7ceb51b] (02+03/15) Accurately ripped
03 [5736316f|27887166] (02+03/14) Accurately ripped
04 [9db7ebd7|500327a5] (02+03/14) Accurately ripped
05 [d1c2f55b|3694a441] (02+03/14) Accurately ripped
06 [de1f727e|9bf3d276] (02+03/14) Accurately ripped
07 [9347e05e|98f92b9a] (02+03/14) Accurately ripped
08 [4ed5562e|fa624da9] (02+03/14) Accurately ripped
09 [9422057c|6da49ff1] (02+03/14) Accurately ripped
10 [a3dca446|1e2204d8] (02+03/14) Accurately ripped
Offsetted by 664:
01 [d6ee8496] (02/14) Accurately ripped
02 [b4c7bd14] (03/15) Accurately ripped
03 [29f38dcf] (02/14) Accurately ripped
04 [ea0ad737] (02/14) Accurately ripped
05 [f1a81f1b] (02/14) Accurately ripped
06 [478c711e] (02/14) Accurately ripped
07 [3fcd387e] (02/14) Accurately ripped
08 [2e36167e] (02/14) Accurately ripped
09 [4f6567c4] (02/14) Accurately ripped
10 [6feb0a65] (02/14) Accurately ripped
Offsetted by 5:
01 [57eba6f4] (03/14) Accurately ripped
02 [6082578a] (03/15) Accurately ripped
03 [11792943] (03/14) Accurately ripped
04 [3fd5d8cb] (03/14) Accurately ripped
05 [d3edefe3] (03/14) Accurately ripped
06 [d4e4824a] (03/14) Accurately ripped
07 [62759a7a] (03/14) Accurately ripped
08 [10213ef4] (03/14) Accurately ripped
09 [b212b8bb] (03/14) Accurately ripped
10 [7e9161d3] (00/14) No match (V2 was not tested)
Offsetted by 946:
01 [e28d12d2] (00/14) No match (V2 was not tested)
02 [5afa6980] (00/15) No match (V2 was not tested)
03 [ccb48db7] (00/14) No match (V2 was not tested)
04 [3b090b5f] (00/14) No match (V2 was not tested)
05 [6beceaab] (00/14) No match (V2 was not tested)
06 [d8905276] (00/14) No match (V2 was not tested)
07 [7e469f76] (00/14) No match (V2 was not tested)
08 [90ef5eea] (00/14) No match (V2 was not tested)
09 [81a01872] (00/14) No match (V2 was not tested)
10 [ee11102b] (00/14) No match (V2 was not tested)

Track Peak [ CRC32 ] [W/O NULL] [ LOG ]
– 100,0 [0B585C95] [8089D856] W/O NULL
01 89,4 [F9B347AB] [8867E391]
02 88,0 [FBD03507] [79351A6C]
03 89,2 [29D849ED] [10757CF0]
04 76,6 [D3726980] [79C1FF0E]
05 71,2 [0001FE44] [753F2801]
06 57,1 [80C175BA] [F377B68D]
07 59,8 [AFAAA58F] [29F6DE3C]
08 89,6 [D1C7BF9E] [83B58105]
09 67,0 [FFB64418] [C24D5139]
10 100,0 [EE9BD9A9] [450EB080]

Thanks to the original releaser

See also: