Subcategories

Oscar Peterson & Nelson Riddle - Oscar Peterson & Nelson Riddle (1963) [Reissue 2009] (Repost)

Posted By: gribovar
Oscar Peterson & Nelson Riddle - Oscar Peterson & Nelson Riddle (1963) [Reissue 2009] (Repost)

Oscar Peterson & Nelson Riddle - Oscar Peterson & Nelson Riddle (1963) [Reissue 2009]
EAC Rip | FLAC (tracks+.cue+log) - 250 MB | MP3 CBR 320 kbps (LAME 3.93) - 101 MB | Covers (4 MB) included
Genre: Jazz | RAR 3% Rec. | Label: Verve Records (0602517909007)

The Nelson Riddle Orchestra was always great enough to play music for film and television soundtracks, and accompany the greatest of stars, including Louis Jordan, Frank Sinatra, Ella Fitzgerald, Peggy Lee, and Antonio Carlos Jobim, among many others. For the band to back up the 1963 version of the Oscar Peterson trio with bassist Ray Brown and drummer Ed Thigpen might have created some tension, with Peterson always wanting to cut loose and go over the top as opposed to the silky smooth sound Riddle favored. Fortunately, Peterson strikes a balance between playing it cool and lettin' 'er rip on this collection of standards with the dinner hour in mind. Though not exclusively subtle and romantic, Riddle and Peterson strike a golden bipartisan compromise in rendering these well-known American popular songs into quietly burning embers of pure delight. It's a predictable mix, but so warm and heartfelt that one has to commend the participants for allowing each other their own personal ideas without selling out. Riddle's contribution was to form a unique group, unfortunately all unattributed, of ten cellos (no violins or violas), five horns, three flutes, a harp, and a percussion section. No one section dominates, which is the beauty of the famed arranger/composer/bandleader's concept. Summarily, Peterson chooses to not clash with the instruments as he trades phrases while generally not playing along with them. This non-interruptive dialogue makes for communication that creates the best chemistry from a dynamic standpoint. In the case of "Come Sunday," Riddle's unadulterated chart of Duke Ellington's immortal composition finds Peterson in perfect sway, while separate and equal bluesy proportions of Count Basie-like melody earmark the easy swinging "Judy." There's more Basie included in the concise, three-minute "Someday My Prince Will Come" with good new lines from Peterson, while a great rendition of "A Sleeping Bee" recalls the Frank Foster years with Basie with lots of counterpoint as the cello tentet adds considerable depth to the proceedings. A pastoral mood hovers over "My Foolish Heart" with the your turn-my turn piano-orchestra's respectful trading of melody in full regalia, while the flute section takes the serene beauty image further during the Peterson-Gene Lees composition "Nightingale" and the always lovely "Portrait of Jenny." The version of "'Round Midnight" is an example of Peterson going off a bit on the arpeggiated side amongst a fairly stock horn chart, but utterly lovely, and not too creamy. Again - this is not a soft and fuzzy overstrung effort dominated by cheese or cotton candy, but instead a quietly strong, rich, fully evocative set of great tracks that emphasize the undercurrent rather than the overflow of emotions. It is unusual in a starkly emotional sense of being, but the way all projects of this size and nature should be approached - with taste, class, and a healthy portion of restraint.
Tracklist:
01. My Foolish Heart (Washington-Young)
02. Judy (Carmichael-Lerner)
03. 'Round Midnight (Monk)
04. Someday My Prince Will Come (Churchill-Morey)
05. Come Sunday (Ellington)
06. Nightingale (Lees-Peterson)
07. My Ship (Gershwin-Weill)
08. A Sleeping Bee (Arlen-Capote)
09. Portrait of Jenny (Burdge-Robinson)
10. Goodbye (Jenkins)

Total time: 41:14

Exact Audio Copy V0.99 prebeta 4 from 23. January 2008

EAC extraction logfile from 7. May 2009, 12:32

Oscar Peterson & Nelson Riddle / The Trio & The Orchestra With Strings

Used drive : PLEXTOR CD-R PREMIUM2 Adapter: 1 ID: 1

Read mode : Secure
Utilize accurate stream : Yes
Defeat audio cache : Yes
Make use of C2 pointers : No

Read offset correction : 30
Overread into Lead-In and Lead-Out : Yes
Fill up missing offset samples with silence : Yes
Delete leading and trailing silent blocks : No
Null samples used in CRC calculations : Yes
Used interface : Installed external ASPI interface
Gap handling : Appended to previous track

Used output format : User Defined Encoder
Selected bitrate : 32 kBit/s
Quality : High
Add ID3 tag : No
Command line compressor : C:\Programmi\FLAC\flac.exe
Additional command line options : -8 -V -T "ARTIST=%a" -T "TITLE=%t" -T "ALBUM=%g" -T "DATE=%y" -T "TRACKNUMBER=%n" -T "GENRE=%m" -T "COMMENT=EAC FLAC -8" %s


TOC of the extracted CD

Track | Start | Length | Start sector | End sector
––––––––––––––––––––––––––––-
1 | 0:00.00 | 5:00.20 | 0 | 22519
2 | 5:00.20 | 3:39.19 | 22520 | 38963
3 | 8:39.39 | 4:08.40 | 38964 | 57603
4 | 12:48.04 | 2:52.66 | 57604 | 70569
5 | 15:40.70 | 3:24.32 | 70570 | 85901
6 | 19:05.27 | 4:13.64 | 85902 | 104940
7 | 23:19.16 | 5:42.67 | 104941 | 130657
8 | 29:02.08 | 3:43.27 | 130658 | 147409
9 | 32:45.35 | 4:28.00 | 147410 | 167509
10 | 37:13.35 | 4:05.50 | 167510 | 185934


Track 1

Filename D:\My Rip\01 - My Foolish Heart.wav

Pre-gap length 0:00:02.00

Peak level 86.0 %
Track quality 100.0 %
Test CRC 790067C0
Copy CRC 790067C0
Track not present in AccurateRip database
Copy OK

Track 2

Filename D:\My Rip\02 - Judy.wav

Pre-gap length 0:00:02.34

Peak level 86.0 %
Track quality 100.0 %
Test CRC E229D7E2
Copy CRC E229D7E2
Track not present in AccurateRip database
Copy OK

Track 3

Filename D:\My Rip\03 - 'Round Midnight.wav

Pre-gap length 0:00:01.25

Peak level 86.0 %
Track quality 100.0 %
Test CRC 1F610DA8
Copy CRC 1F610DA8
Track not present in AccurateRip database
Copy OK

Track 4

Filename D:\My Rip\04 - Someday My Prince Will Come.wav

Pre-gap length 0:00:01.30

Peak level 86.0 %
Track quality 100.0 %
Test CRC 18BA04E1
Copy CRC 18BA04E1
Track not present in AccurateRip database
Copy OK

Track 5

Filename D:\My Rip\05 - Come Sunday.wav

Pre-gap length 0:00:01.05

Peak level 85.2 %
Track quality 100.0 %
Test CRC ADEF6279
Copy CRC ADEF6279
Track not present in AccurateRip database
Copy OK

Track 6

Filename D:\My Rip\06 - Nightingale.wav

Pre-gap length 0:00:03.70

Peak level 86.0 %
Track quality 100.0 %
Test CRC B5A60DCB
Copy CRC B5A60DCB
Track not present in AccurateRip database
Copy OK

Track 7

Filename D:\My Rip\07 - My Ship.wav

Pre-gap length 0:00:01.44

Peak level 80.4 %
Track quality 100.0 %
Test CRC EFB378AB
Copy CRC EFB378AB
Track not present in AccurateRip database
Copy OK

Track 8

Filename D:\My Rip\08 - A Sleeping Bee.wav

Pre-gap length 0:00:01.69

Peak level 86.0 %
Track quality 100.0 %
Test CRC 68647AC7
Copy CRC 68647AC7
Track not present in AccurateRip database
Copy OK

Track 9

Filename D:\My Rip\09 - Portrait Of Jenny.wav

Pre-gap length 0:00:01.56

Peak level 86.0 %
Track quality 100.0 %
Test CRC B5844958
Copy CRC B5844958
Track not present in AccurateRip database
Copy OK

Track 10

Filename D:\My Rip\10 - Goodbye.wav

Pre-gap length 0:00:02.01

Peak level 86.0 %
Track quality 100.0 %
Test CRC DFB5C827
Copy CRC DFB5C827
Track not present in AccurateRip database
Copy OK


None of the tracks are present in the AccurateRip database

No errors occurred

End of status report

[CUETools log; Date: 09.11.2017 18:36:38; Version: 2.1.4]
[CTDB TOCID: vQNVqGT1JYqGHWCWATBJSL1awIY-] found.
Track | CTDB Status
1 | (32/32) Accurately ripped
2 | (32/32) Accurately ripped
3 | (32/32) Accurately ripped
4 | (32/32) Accurately ripped
5 | (32/32) Accurately ripped
6 | (32/32) Accurately ripped
7 | (32/32) Accurately ripped
8 | (32/32) Accurately ripped
9 | (32/32) Accurately ripped
10 | (32/32) Accurately ripped
[AccurateRip ID: 000f712e-007b67f1-7209af0a] found.
Track [ CRC | V2 ] Status
01 [e10628e0|1260f5e1] (15+25/40) Accurately ripped
02 [fbccb504|9f7a268e] (14+25/39) Accurately ripped
03 [910aaeb4|78e07658] (14+25/39) Accurately ripped
04 [4b00cbf4|550e6575] (15+25/40) Accurately ripped
05 [4c600c9f|3cafbb0c] (14+25/39) Accurately ripped
06 [d21a04ed|d2163286] (15+25/40) Accurately ripped
07 [a65709b2|8f372c9b] (15+24/39) Accurately ripped
08 [9e004c55|fcf7ae5f] (15+24/39) Accurately ripped
09 [ac4e1a87|ad5dc68f] (15+24/39) Accurately ripped
10 [8f253101|341b601c] (13+24/37) Accurately ripped

Track Peak [ CRC32 ] [W/O NULL] [ LOG ]
– 86,0 [3ED0A065] [D72076B7]
01 86,0 [790067C0] [9377173A] CRC32
02 86,0 [E229D7E2] [8218BB2C] CRC32
03 86,0 [1F610DA8] [706FD0B9] CRC32
04 86,0 [18BA04E1] [5557530B] CRC32
05 85,2 [ADEF6279] [A8C7DF71] CRC32
06 86,0 [B5A60DCB] [C4CE5D83] CRC32
07 80,4 [EFB378AB] [BFB538C2] CRC32
08 86,0 [68647AC7] [3A8DA857] CRC32
09 86,0 [B5844958] [DF546068] CRC32
10 86,0 [DFB5C827] [7CAFBE9E] CRC32

Thanks to the original releaser

See also:
Oscar Peterson Trio - Oscar Pe...rk Terry (1964) [Reissue 2007]