Tags
Language
Tags

Ottavio Dantone, Accademia Bizantina - Pietro Antonio Cesti: La Dori (2020)

Posted By: ArlegZ
Ottavio Dantone, Accademia Bizantina - Pietro Antonio Cesti: La  Dori (2020)

Ottavio Dantone, Accademia Bizantina - Pietro Antonio Cesti: La Dori (2020)
XLD | FLAC | Tracks (Cue & Log) ~ 842 Mb | Total time: 160:46 | Scans included
Classical | Label: CPO ‎| 555 309-2 | Recorded: 2019

In 2019 the music world commemorated the 350th anniversary of the death of MarcAntonio Cesti, the greatest composer of opera comedies and the most gifted melodist of the seventeenth century. Since Cesti lived and worked in Innsbruck for many years, La Dori, his brilliant comedy of disguises and hidden identities, was the perfect choice for posthumous honors »on location.« Ottavio Dantone, who is active from the Milan Scala to the Salzburg Festival with his specialists support in the field of Baroque and Classical opera, conducted his exquisite original sound ensemble, the Accademia Bizantina on the Innsbruck opera stage and set in motion the Dori renaissance. This comedy of loves errors set by the banks of the Euphrates and at the court of Babylon is now available for audio enjoyment on cpo.

Performer:
Dori (Ali) - Francesca Ascioti
Tolomeo - Emőke Baráth
Arsinoe - Francesca Lombardi Mazzuli
Oronte - Rupert Enticknap
Artaxerse - Federico Sacchi
Arsete - Bradley Smith
Dirce - Alberto Allegrezza
Erasto - Pietro Di Bianco
Golo - Rocco Cavalluzzi
Bagoa - Konstantin Derri
Accademia Bizantina
Ottavio Dantone, direttore

Track List:
CD1:
01. Sinfonia
02. Atto I. Lo son pur solo (Ascioti)
03. Ferma figlia (Smith, Ascioti)
04. Qual' error (Cavalluzzi)
05. Ed è pur vero (Allegrezzo, Cavalluzi)
06. Arioso: Son cieca, è ver (Cavalluzzi)
07. Olà (Enticknap, Cavalluzzi, Allegrezza)
08. Aria: Rendetemi mi il mio (Enticknap)
09. Pur convien ch'io ti (Sacchi, Enticknap)
10. Amor, se la palmo (Ascioti, Smith)
11. Se perfido amore (Lombardi Mazzulli, Baráth, Allegrezza)
12. O quanto Arsionoe è bella (Baráth, Lombardi, Mazzulli)
13. Tu parti, Arsinoe (Baráth)
14. Se per un sol momento (Derri, Baráth)
15. Atto II. Stella, che torbida (Di Bianco)
16. Chi mi chiama (Smith, Di Bianco)
17. Quanto è dura (Lambardi Mazzulli, Ascioti)
18. Amor che ni consigli (Ascioti)
19. Sotto vario alto pianeta (Cavalluzzi, Ascioti)
20. Mi Rapisce la mia pace (Enticknap, Ascioti)
21. Ed anco orante (Sacchi, Enticknap, Ascioti)
22. Sinfonia
CD2:
01. Con Amor Scherzi chi sa (Allegrezza, Derri)
02. Vaga mia, che notte (Di Bianco, Baráth, Smith)
03. Marirà dunque Arsinoe (Ascioti, Enticknap)
04. Occhi voi, che piangete (Enticknap)
05. Aria: Speranze fermate (Enticknap)
06. Piange Oronte notte, edi (Cavalluzzi, Ascioti)
07. La fede al padre (Enticknap)
08. E con si fieri accenti (Lombardi Mazzulli, Ascioti)
09. Eche rimiri, Oronte (Enticknap, Di Bianco, Ascioti, Lombardi Mazzulli)
10. Raffrena, Oronte (Baráth, Enticknap, Di Bianco, Ascioti, Lombardi Mazzulli, Cavalluzzi)
11. Atto III. Aria: Troppo libero impero (Smith)
12. Ch' Arsompe s'imprigiéni (Di Bianco, Sacchi)
13. Aria: Cangia sfera, o Fortuna (Di Bianco)
14. S'io son vecchia è mal per me (Allegrezza)
15. Aria: Chi vuol libertà (Allegrezza)
16. Aria: Forsennata humanità (Ascioti)
17. Inguistissimo Oronte (Baráth)
18. Arsinoe mia signora (Derri, Baráth)
19. Amorosa pietà (Lombardi Mazzulli)
20. Qual turbi ne d'affani (Sacci, Lombardi Mazzulli)
21. Cosi dunque ritovo (Enticknap, Di Bianco, Sacchi)
22. Oronte misero (Enticknap, Cavalluzzi)
23. Ancor deliri (Sacchi, Enticknap, Di Bianco)
24. Impaziente, o sire (Lomardi Mazzulli, Enticknap, Di Bianco, Sacchi)
25. Invitto sire (Smith, Sacchi, Enticknap, Lombardi Mazzulli)
26. Signor, gran nova io porto (Cavalluzzi, Sacchi, Lombardi Mazzulli, Smith, Enticknap, Di Bianco)
27. Sento il nome di Dori (Baráth, Smith, Enticknap, Sacchi)
28. Figlio, figlio, ove vai (Allegrezza, Enticknap)
29. Pur ti veggio, o mia vita (Enticknap, Ascioti, Sacchi, Lombardi Mazzulli, Baráth, Smith, Allegrezza)


X Lossless Decoder version 20191004 (152.0)

XLD extraction logfile from 2020-09-11 17:54:06 +0200

Soli, Accademia Bizantina, Dantone / Cesti - La Dori (CD1)

Used drive : hp BD-RE BT30N (revision B308)
Media type : Pressed CD

Ripper mode : XLD Secure Ripper
Disable audio cache : OK for the drive with a cache less than 1375KiB
Make use of C2 pointers : NO
Read offset correction : 667
Max retry count : 20
Gap status : Analyzed, Appended (except HTOA)

TOC of the extracted CD
Track | Start | Length | Start sector | End sector
––––––––––––––––––––––––––––-
1 | 00:00:00 | 01:08:15 | 0 | 5114
2 | 01:08:15 | 03:12:07 | 5115 | 19521
3 | 04:20:22 | 05:29:21 | 19522 | 44217
4 | 09:49:43 | 02:11:09 | 44218 | 54051
5 | 12:00:52 | 00:48:20 | 54052 | 57671
6 | 12:48:72 | 03:02:55 | 57672 | 71376
7 | 15:51:52 | 00:47:08 | 71377 | 74909
8 | 16:38:60 | 03:17:70 | 74910 | 89754
9 | 19:56:55 | 03:52:37 | 89755 | 107191
10 | 23:49:17 | 05:10:44 | 107192 | 130485
11 | 28:59:61 | 06:01:64 | 130486 | 157624
12 | 35:01:50 | 04:48:70 | 157625 | 179294
13 | 39:50:45 | 02:43:68 | 179295 | 191587
14 | 42:34:38 | 04:24:45 | 191588 | 211432
15 | 46:59:08 | 02:46:56 | 211433 | 223938
16 | 49:45:64 | 01:10:50 | 223939 | 229238
17 | 50:56:39 | 06:18:15 | 229239 | 257603
18 | 57:14:54 | 03:55:01 | 257604 | 275229
19 | 61:09:55 | 07:28:36 | 275230 | 308865
20 | 68:38:16 | 07:01:58 | 308866 | 340498
21 | 75:39:74 | 03:23:67 | 340499 | 355790
22 | 79:03:66 | 00:42:08 | 355791 | 358948

AccurateRip Summary
Disc not found in AccurateRip DB.

All Tracks
Statistics
Read error : 0
Jitter error (maybe fixed) : 0
Retry sector count : 0
Damaged sector count : 0

Track 01
Filename : /Volumes/INTENSO/01 Ottavio Dantone - Sinfonia.flac
Pre-gap length : 00:02:00

CRC32 hash (test run) : 1D3DEAE4
CRC32 hash : 1D3DEAE4
CRC32 hash (skip zero) : D4D5FAB7
AccurateRip v1 signature : A4633ED9
AccurateRip v2 signature : 8F5ECA0D
->Track not present in AccurateRip database.
Statistics
Read error : 0
Jitter error (maybe fixed) : 0
Retry sector count : 0
Damaged sector count : 0

Track 02
Filename : /Volumes/INTENSO/02 Ottavio Dantone - Act I - Lo son pur solo (Ascioti].flac

CRC32 hash (test run) : 52F10278
CRC32 hash : 52F10278
CRC32 hash (skip zero) : 4410E5A5
AccurateRip v1 signature : 3C5A4623
AccurateRip v2 signature : 205EC698
->Track not present in AccurateRip database.
Statistics
Read error : 0
Jitter error (maybe fixed) : 0
Retry sector count : 0
Damaged sector count : 0

Track 03
Filename : /Volumes/INTENSO/03 Ottavio Dantone - Act I - Ferma figlia (Smith, Ascioti).flac

CRC32 hash (test run) : D71ACF1D
CRC32 hash : D71ACF1D
CRC32 hash (skip zero) : EE129236
AccurateRip v1 signature : 271FA5E5
AccurateRip v2 signature : C1A8E951
->Track not present in AccurateRip database.
Statistics
Read error : 0
Jitter error (maybe fixed) : 0
Retry sector count : 0
Damaged sector count : 0

Track 04
Filename : /Volumes/INTENSO/04 Ottavio Dantone - Act I - Qual' error (Cavalluzzi).flac

CRC32 hash (test run) : E86F9058
CRC32 hash : E86F9058
CRC32 hash (skip zero) : 8D1216E5
AccurateRip v1 signature : B664B159
AccurateRip v2 signature : 7A5C552B
->Track not present in AccurateRip database.
Statistics
Read error : 0
Jitter error (maybe fixed) : 0
Retry sector count : 0
Damaged sector count : 0

Track 05
Filename : /Volumes/INTENSO/05 Ottavio Dantone - Act I - Ed è pur vero (Allegrezzo, Cavalluzi).flac

CRC32 hash (test run) : C321C3D5
CRC32 hash : C321C3D5
CRC32 hash (skip zero) : 9046B187
AccurateRip v1 signature : 5D3A8B3A
AccurateRip v2 signature : 3E1012FA
->Track not present in AccurateRip database.
Statistics
Read error : 0
Jitter error (maybe fixed) : 0
Retry sector count : 0
Damaged sector count : 0

Track 06
Filename : /Volumes/INTENSO/06 Ottavio Dantone - Act I - Arioso son cieca, è ver (Cavalluzzi).flac

CRC32 hash (test run) : 85839ACD
CRC32 hash : 85839ACD
CRC32 hash (skip zero) : 84D50CCE
AccurateRip v1 signature : 8AD77FA9
AccurateRip v2 signature : CE092AD4
->Track not present in AccurateRip database.
Statistics
Read error : 0
Jitter error (maybe fixed) : 0
Retry sector count : 0
Damaged sector count : 0

Track 07
Filename : /Volumes/INTENSO/07 Ottavio Dantone - Act I - Olà (Enticknap, Cavalluzzi, Allegrezza).flac

CRC32 hash (test run) : 48B34559
CRC32 hash : 48B34559
CRC32 hash (skip zero) : F3872078
AccurateRip v1 signature : B33A0FBC
AccurateRip v2 signature : 60FBE667
->Track not present in AccurateRip database.
Statistics
Read error : 0
Jitter error (maybe fixed) : 0
Retry sector count : 0
Damaged sector count : 0

Track 08
Filename : /Volumes/INTENSO/08 Ottavio Dantone - Act I - Aria Rendetemi mi il mio (Enticknap).flac

CRC32 hash (test run) : 7A27E855
CRC32 hash : 7A27E855
CRC32 hash (skip zero) : DA12A657
AccurateRip v1 signature : 8B25913E
AccurateRip v2 signature : F5B25F0B
->Track not present in AccurateRip database.
Statistics
Read error : 0
Jitter error (maybe fixed) : 0
Retry sector count : 0
Damaged sector count : 0

Track 09
Filename : /Volumes/INTENSO/09 Ottavio Dantone - Act I - Pur convien ch'io ti (Sacchi, Enticknap).flac

CRC32 hash (test run) : C2FFCD02
CRC32 hash : C2FFCD02
CRC32 hash (skip zero) : 180CA089
AccurateRip v1 signature : 572F1094
AccurateRip v2 signature : 22C5F382
->Track not present in AccurateRip database.
Statistics
Read error : 0
Jitter error (maybe fixed) : 0
Retry sector count : 0
Damaged sector count : 0

Track 10
Filename : /Volumes/INTENSO/10 Ottavio Dantone - Act I - Amor, se la palmo (Ascioti, Smith).flac

CRC32 hash (test run) : 3AF57197
CRC32 hash : 3AF57197
CRC32 hash (skip zero) : 24FB2F42
AccurateRip v1 signature : 07505A96
AccurateRip v2 signature : 5CAC28C9
->Track not present in AccurateRip database.
Statistics
Read error : 0
Jitter error (maybe fixed) : 0
Retry sector count : 0
Damaged sector count : 0

Track 11
Filename : /Volumes/INTENSO/11 Ottavio Dantone - Act I - Se perfido amore (Lombardi Mazzulli, Baráth, Allegrezza).flac

CRC32 hash (test run) : 9A7E7EA4
CRC32 hash : 9A7E7EA4
CRC32 hash (skip zero) : B689D74C
AccurateRip v1 signature : 7AD11974
AccurateRip v2 signature : D16BBF0F
->Track not present in AccurateRip database.
Statistics
Read error : 0
Jitter error (maybe fixed) : 0
Retry sector count : 0
Damaged sector count : 0

Track 12
Filename : /Volumes/INTENSO/12 Ottavio Dantone - Act I - O quanto Arsionoe è bella (Baráth, Lombardi, Mazzulli).flac

CRC32 hash (test run) : 1A7AAA47
CRC32 hash : 1A7AAA47
CRC32 hash (skip zero) : 7BCF4B97
AccurateRip v1 signature : 7B1990A1
AccurateRip v2 signature : CDC87CF1
->Track not present in AccurateRip database.
Statistics
Read error : 0
Jitter error (maybe fixed) : 0
Retry sector count : 0
Damaged sector count : 0

Track 13
Filename : /Volumes/INTENSO/13 Ottavio Dantone - Act I - Tu parti, Arsinoe (Baráth).flac

CRC32 hash (test run) : 1D503212
CRC32 hash : 1D503212
CRC32 hash (skip zero) : 533F85CA
AccurateRip v1 signature : F3A5E945
AccurateRip v2 signature : 5FBA6FA4
->Track not present in AccurateRip database.
Statistics
Read error : 0
Jitter error (maybe fixed) : 0
Retry sector count : 0
Damaged sector count : 0

Track 14
Filename : /Volumes/INTENSO/14 Ottavio Dantone - Act I - Se per un sol momento (Derri, Baráth).flac

CRC32 hash (test run) : 9F6B02EA
CRC32 hash : 9F6B02EA
CRC32 hash (skip zero) : BD610495
AccurateRip v1 signature : 2B2B8877
AccurateRip v2 signature : EAF120B3
->Track not present in AccurateRip database.
Statistics
Read error : 0
Jitter error (maybe fixed) : 0
Retry sector count : 0
Damaged sector count : 0

Track 15
Filename : /Volumes/INTENSO/15 Ottavio Dantone - Act II - Stella, che torbida (Di Bianco).flac

CRC32 hash (test run) : D554B6A5
CRC32 hash : D554B6A5
CRC32 hash (skip zero) : 8BDA72BC
AccurateRip v1 signature : 2699E676
AccurateRip v2 signature : 19942077
->Track not present in AccurateRip database.
Statistics
Read error : 0
Jitter error (maybe fixed) : 0
Retry sector count : 0
Damaged sector count : 0

Track 16
Filename : /Volumes/INTENSO/16 Ottavio Dantone - Act II - Chi mi chiama (Smith, Di Bianco).flac

CRC32 hash (test run) : 3B15F58B
CRC32 hash : 3B15F58B
CRC32 hash (skip zero) : 9E5842A4
AccurateRip v1 signature : A929180A
AccurateRip v2 signature : D7C493F1
->Track not present in AccurateRip database.
Statistics
Read error : 0
Jitter error (maybe fixed) : 0
Retry sector count : 0
Damaged sector count : 0

Track 17
Filename : /Volumes/INTENSO/17 Ottavio Dantone - Act II - Quanto è dura (Lambardi Mazzulli, Ascioti).flac

CRC32 hash (test run) : 95010EB5
CRC32 hash : 95010EB5
CRC32 hash (skip zero) : 6943E519
AccurateRip v1 signature : 8294256A
AccurateRip v2 signature : A1C2FA0C
->Track not present in AccurateRip database.
Statistics
Read error : 0
Jitter error (maybe fixed) : 0
Retry sector count : 0
Damaged sector count : 0

Track 18
Filename : /Volumes/INTENSO/18 Ottavio Dantone - Act II - Amor che ni consigli (Ascioti).flac

CRC32 hash (test run) : 7A639167
CRC32 hash : 7A639167
CRC32 hash (skip zero) : B8A0BBCD
AccurateRip v1 signature : 55E07B79
AccurateRip v2 signature : DB293238
->Track not present in AccurateRip database.
Statistics
Read error : 0
Jitter error (maybe fixed) : 0
Retry sector count : 0
Damaged sector count : 0

Track 19
Filename : /Volumes/INTENSO/19 Ottavio Dantone - Act II - Sotto vario alto pianeta (Cavalluzzi, Ascioti).flac

CRC32 hash (test run) : ABE72CDF
CRC32 hash : ABE72CDF
CRC32 hash (skip zero) : 69347A50
AccurateRip v1 signature : FE28FD61
AccurateRip v2 signature : BC34E469
->Track not present in AccurateRip database.
Statistics
Read error : 0
Jitter error (maybe fixed) : 0
Retry sector count : 0
Damaged sector count : 0

Track 20
Filename : /Volumes/INTENSO/20 Ottavio Dantone - Act II - Mi Rapisce la mia pace (Enticknap, Ascioti).flac

CRC32 hash (test run) : A5FB1E8F
CRC32 hash : A5FB1E8F
CRC32 hash (skip zero) : 2A25BA8F
AccurateRip v1 signature : 6C98AA52
AccurateRip v2 signature : 2F937AB5
->Track not present in AccurateRip database.
Statistics
Read error : 0
Jitter error (maybe fixed) : 0
Retry sector count : 0
Damaged sector count : 0

Track 21
Filename : /Volumes/INTENSO/21 Ottavio Dantone - Act II - Ed anco orante (Sacchi, Enticknap, Ascioti).flac

CRC32 hash (test run) : 0E9BFB29
CRC32 hash : 0E9BFB29
CRC32 hash (skip zero) : 79F56023
AccurateRip v1 signature : E209B042
AccurateRip v2 signature : 6DF74D58
->Track not present in AccurateRip database.
Statistics
Read error : 0
Jitter error (maybe fixed) : 0
Retry sector count : 0
Damaged sector count : 0

Track 22
Filename : /Volumes/INTENSO/22 Ottavio Dantone - Act II - Sinfonia.flac

CRC32 hash (test run) : DD76DD04
CRC32 hash : DD76DD04
CRC32 hash (skip zero) : D7099315
AccurateRip v1 signature : EB4E1BA0
AccurateRip v2 signature : 0722E0F4
->Track not present in AccurateRip database.
Statistics
Read error : 0
Jitter error (maybe fixed) : 0
Retry sector count : 0
Damaged sector count : 0

No errors occurred

End of status report

––-BEGIN XLD SIGNATURE––-
PRgn_cLXF_qHuoF1KIEC9_MEqDX7Gzw.j27CcgdTDevVr3ye6e1ifu50oYtAO6ISxKj7sL761vhtA2SdkK0jmKJvodQkSlj5Pnyj5dW
––-END XLD SIGNATURE––-


X Lossless Decoder version 20191004 (152.0)

XLD extraction logfile from 2020-09-11 19:05:56 +0200

Soli, Accademia Bizantina, Dantone / Cesti - La Dori (CD2)

Used drive : hp BD-RE BT30N (revision B308)
Media type : Pressed CD

Ripper mode : XLD Secure Ripper
Disable audio cache : OK for the drive with a cache less than 1375KiB
Make use of C2 pointers : NO
Read offset correction : 667
Max retry count : 20
Gap status : Analyzed, Appended (except HTOA)

TOC of the extracted CD
Track | Start | Length | Start sector | End sector
––––––––––––––––––––––––––––-
1 | 00:00:00 | 05:30:46 | 0 | 24795
2 | 05:30:46 | 08:35:67 | 24796 | 63487
3 | 14:06:38 | 03:55:40 | 63488 | 81152
4 | 18:02:03 | 01:03:27 | 81153 | 85904
5 | 19:05:30 | 04:06:45 | 85905 | 104399
6 | 23:12:00 | 02:06:23 | 104400 | 113872
7 | 25:18:23 | 02:25:12 | 113873 | 124759
8 | 27:43:35 | 05:07:50 | 124760 | 147834
9 | 32:51:10 | 01:19:48 | 147835 | 153807
10 | 34:10:58 | 01:40:48 | 153808 | 161355
11 | 35:51:31 | 02:54:50 | 161356 | 174455
12 | 38:46:06 | 01:12:07 | 174456 | 179862
13 | 39:58:13 | 01:16:00 | 179863 | 185562
14 | 41:14:13 | 02:07:61 | 185563 | 195148
15 | 43:21:74 | 05:34:28 | 195149 | 220226
16 | 48:56:27 | 03:58:25 | 220227 | 238101
17 | 52:54:52 | 01:52:45 | 238102 | 246546
18 | 54:47:22 | 03:20:54 | 246547 | 261600
19 | 58:08:01 | 03:27:03 | 261601 | 277128
20 | 61:35:04 | 01:03:11 | 277129 | 281864
21 | 62:38:15 | 01:30:26 | 281865 | 288640
22 | 64:08:41 | 02:11:53 | 288641 | 298518
23 | 66:20:19 | 01:13:08 | 298519 | 304001
24 | 67:33:27 | 01:12:19 | 304002 | 309420
25 | 68:45:46 | 01:23:64 | 309421 | 315709
26 | 70:09:35 | 01:17:45 | 315710 | 321529
27 | 71:27:05 | 03:05:10 | 321530 | 335414
28 | 74:32:15 | 01:03:69 | 335415 | 340208
29 | 75:36:09 | 05:21:45 | 340209 | 364328

AccurateRip Summary
Disc not found in AccurateRip DB.

All Tracks
Statistics
Read error : 0
Jitter error (maybe fixed) : 0
Retry sector count : 0
Damaged sector count : 0

Track 01
Filename : /Volumes/INTENSO/01 Ottavio Dantone - Act II - Con Amor Scherzi chi sa [(Allegrezza, Derri).flac
Pre-gap length : 00:02:00

CRC32 hash (test run) : 811BB6A1
CRC32 hash : 811BB6A1
CRC32 hash (skip zero) : C6FA0DA4
AccurateRip v1 signature : DF291ADF
AccurateRip v2 signature : 8C2D2532
->Track not present in AccurateRip database.
Statistics
Read error : 0
Jitter error (maybe fixed) : 0
Retry sector count : 0
Damaged sector count : 0

Track 02
Filename : /Volumes/INTENSO/02 Ottavio Dantone - Act II - Vaga mia, che notte (Di Bianco, Baráth, Smith).flac

CRC32 hash (test run) : 29EC44F3
CRC32 hash : 29EC44F3
CRC32 hash (skip zero) : 29D05BE6
AccurateRip v1 signature : E0F2C55F
AccurateRip v2 signature : 93A277D7
->Track not present in AccurateRip database.
Statistics
Read error : 0
Jitter error (maybe fixed) : 0
Retry sector count : 0
Damaged sector count : 0

Track 03
Filename : /Volumes/INTENSO/03 Ottavio Dantone - Act II - Marirà dunque Arsinoe (Ascioti, Enticknap).flac

CRC32 hash (test run) : A5CBC003
CRC32 hash : A5CBC003
CRC32 hash (skip zero) : D6C0AF50
AccurateRip v1 signature : 7EA554BD
AccurateRip v2 signature : D073B1F6
->Track not present in AccurateRip database.
Statistics
Read error : 0
Jitter error (maybe fixed) : 0
Retry sector count : 0
Damaged sector count : 0

Track 04
Filename : /Volumes/INTENSO/04 Ottavio Dantone - Act II - Occhi voi, che piangete (Enticknap).flac

CRC32 hash (test run) : BCCEBCD5
CRC32 hash : BCCEBCD5
CRC32 hash (skip zero) : E8C1E6E6
AccurateRip v1 signature : 739F256C
AccurateRip v2 signature : B16C925A
->Track not present in AccurateRip database.
Statistics
Read error : 0
Jitter error (maybe fixed) : 0
Retry sector count : 0
Damaged sector count : 0

Track 05
Filename : /Volumes/INTENSO/05 Ottavio Dantone - Act II - Aria Speranze fermate (Enticknap).flac

CRC32 hash (test run) : D96E78CA
CRC32 hash : D96E78CA
CRC32 hash (skip zero) : F9B06B88
AccurateRip v1 signature : 8C1DAFDF
AccurateRip v2 signature : 0F2B12D0
->Track not present in AccurateRip database.
Statistics
Read error : 0
Jitter error (maybe fixed) : 0
Retry sector count : 0
Damaged sector count : 0

Track 06
Filename : /Volumes/INTENSO/06 Ottavio Dantone - Act II - Piange Oronte notte, edi (Cavalluzzi, Ascioti).flac

CRC32 hash (test run) : 10C3AF42
CRC32 hash : 10C3AF42
CRC32 hash (skip zero) : B8DE8F85
AccurateRip v1 signature : 7BF41D82
AccurateRip v2 signature : 1CC872A3
->Track not present in AccurateRip database.
Statistics
Read error : 0
Jitter error (maybe fixed) : 0
Retry sector count : 0
Damaged sector count : 0

Track 07
Filename : /Volumes/INTENSO/07 Ottavio Dantone - Act II - La fede al padre (Enticknap).flac

CRC32 hash (test run) : 2962AC5F
CRC32 hash : 2962AC5F
CRC32 hash (skip zero) : DA88F252
AccurateRip v1 signature : E17D9A26
AccurateRip v2 signature : AE40CF74
->Track not present in AccurateRip database.
Statistics
Read error : 0
Jitter error (maybe fixed) : 0
Retry sector count : 0
Damaged sector count : 0

Track 08
Filename : /Volumes/INTENSO/08 Ottavio Dantone - Act II - E con si fieri accenti (Lombardi Mazzulli, Ascioti).flac

CRC32 hash (test run) : 1CE1AEC5
CRC32 hash : 1CE1AEC5
CRC32 hash (skip zero) : B86319BE
AccurateRip v1 signature : 2D533E81
AccurateRip v2 signature : 0FFD13DA
->Track not present in AccurateRip database.
Statistics
Read error : 0
Jitter error (maybe fixed) : 0
Retry sector count : 0
Damaged sector count : 0

Track 09
Filename : /Volumes/INTENSO/09 Ottavio Dantone - Act II - Eche rimiri, Oronte (Enticknap, Di Bianco, Ascioti, Lombardi Mazzulli).flac

CRC32 hash (test run) : 6E736616
CRC32 hash : 6E736616
CRC32 hash (skip zero) : 4212457B
AccurateRip v1 signature : 2D330D25
AccurateRip v2 signature : 73254D8B
->Track not present in AccurateRip database.
Statistics
Read error : 0
Jitter error (maybe fixed) : 0
Retry sector count : 0
Damaged sector count : 0

Track 10
Filename : /Volumes/INTENSO/10 Ottavio Dantone - Act II - Raffrena, Oronte (Baráth, Enticknap, Di Bianco, Ascioti, Lombardi Mazzulli, Cavalluzzi).flac

CRC32 hash (test run) : 59DA7512
CRC32 hash : 59DA7512
CRC32 hash (skip zero) : EE5A387B
AccurateRip v1 signature : FEF62E9E
AccurateRip v2 signature : BEF0D9E2
->Track not present in AccurateRip database.
Statistics
Read error : 0
Jitter error (maybe fixed) : 0
Retry sector count : 0
Damaged sector count : 0

Track 11
Filename : /Volumes/INTENSO/11 Ottavio Dantone - Act III - Aria Troppo libero impero (Smith).flac

CRC32 hash (test run) : 880DEC9E
CRC32 hash : 880DEC9E
CRC32 hash (skip zero) : 0E70E8E9
AccurateRip v1 signature : 2CFE6B76
AccurateRip v2 signature : E60EF5F4
->Track not present in AccurateRip database.
Statistics
Read error : 0
Jitter error (maybe fixed) : 0
Retry sector count : 0
Damaged sector count : 0

Track 12
Filename : /Volumes/INTENSO/12 Ottavio Dantone - Act III - Ch' Arsompe s'imprigiéni (Di Bianco, Sacchi).flac

CRC32 hash (test run) : 04980052
CRC32 hash : 04980052
CRC32 hash (skip zero) : 978B93F9
AccurateRip v1 signature : E6A87922
AccurateRip v2 signature : C05BA588
->Track not present in AccurateRip database.
Statistics
Read error : 0
Jitter error (maybe fixed) : 0
Retry sector count : 0
Damaged sector count : 0

Track 13
Filename : /Volumes/INTENSO/13 Ottavio Dantone - Act III - Aria Cangia sfera, o Fortuna (Di Bianco).flac

CRC32 hash (test run) : 476920CF
CRC32 hash : 476920CF
CRC32 hash (skip zero) : 6FAEBAC3
AccurateRip v1 signature : 4692AA88
AccurateRip v2 signature : DEDFBE46
->Track not present in AccurateRip database.
Statistics
Read error : 0
Jitter error (maybe fixed) : 0
Retry sector count : 0
Damaged sector count : 0

Track 14
Filename : /Volumes/INTENSO/14 Ottavio Dantone - Act III - S'io son vecchia è mal per me (Allegrezza).flac

CRC32 hash (test run) : E09FE98E
CRC32 hash : E09FE98E
CRC32 hash (skip zero) : 350FF5C6
AccurateRip v1 signature : 56F31367
AccurateRip v2 signature : 354C5EDB
->Track not present in AccurateRip database.
Statistics
Read error : 0
Jitter error (maybe fixed) : 0
Retry sector count : 0
Damaged sector count : 0

Track 15
Filename : /Volumes/INTENSO/15 Ottavio Dantone - Act III - Aria Chi vuol libertà (Allegrezza).flac

CRC32 hash (test run) : 2B1A0F2F
CRC32 hash : 2B1A0F2F
CRC32 hash (skip zero) : FA0C4551
AccurateRip v1 signature : 8902932A
AccurateRip v2 signature : AFDED224
->Track not present in AccurateRip database.
Statistics
Read error : 0
Jitter error (maybe fixed) : 0
Retry sector count : 0
Damaged sector count : 0

Track 16
Filename : /Volumes/INTENSO/16 Ottavio Dantone - Act III - Aria Forsennata humanità (Ascioti).flac

CRC32 hash (test run) : DC462F9C
CRC32 hash : DC462F9C
CRC32 hash (skip zero) : 3D41ED73
AccurateRip v1 signature : CCAA3B82
AccurateRip v2 signature : DD5D9894
->Track not present in AccurateRip database.
Statistics
Read error : 0
Jitter error (maybe fixed) : 0
Retry sector count : 0
Damaged sector count : 0

Track 17
Filename : /Volumes/INTENSO/17 Ottavio Dantone - Act III - Inguistissimo Oronte (Baráth).flac

CRC32 hash (test run) : 8B7D29EC
CRC32 hash : 8B7D29EC
CRC32 hash (skip zero) : 27A2B583
AccurateRip v1 signature : 55ED7AA8
AccurateRip v2 signature : 59830CAA
->Track not present in AccurateRip database.
Statistics
Read error : 0
Jitter error (maybe fixed) : 0
Retry sector count : 0
Damaged sector count : 0

Track 18
Filename : /Volumes/INTENSO/18 Ottavio Dantone - Act III - Arsinoe mia signora (Derri, Baráth).flac

CRC32 hash (test run) : B10D7752
CRC32 hash : B10D7752
CRC32 hash (skip zero) : 00DBA723
AccurateRip v1 signature : FCAF983E
AccurateRip v2 signature : 1BE3FB6B
->Track not present in AccurateRip database.
Statistics
Read error : 0
Jitter error (maybe fixed) : 0
Retry sector count : 0
Damaged sector count : 0

Track 19
Filename : /Volumes/INTENSO/19 Ottavio Dantone - Act III - Amorosa pietà (Lombardi Mazzulli).flac

CRC32 hash (test run) : 69E15D95
CRC32 hash : 69E15D95
CRC32 hash (skip zero) : A73B24A4
AccurateRip v1 signature : 0F87A571
AccurateRip v2 signature : E2024903
->Track not present in AccurateRip database.
Statistics
Read error : 0
Jitter error (maybe fixed) : 0
Retry sector count : 0
Damaged sector count : 0

Track 20
Filename : /Volumes/INTENSO/20 Ottavio Dantone - Act III - Qual turbi ne d'affani (Sacci, Lombardi Mazzulli).flac

CRC32 hash (test run) : 1B7DF433
CRC32 hash : 1B7DF433
CRC32 hash (skip zero) : 840CD2D5
AccurateRip v1 signature : A0803516
AccurateRip v2 signature : B56366D0
->Track not present in AccurateRip database.
Statistics
Read error : 0
Jitter error (maybe fixed) : 0
Retry sector count : 0
Damaged sector count : 0

Track 21
Filename : /Volumes/INTENSO/21 Ottavio Dantone - Act III - Cosi dunque ritovo (Enticknap, Di Bianco, Sacchi).flac

CRC32 hash (test run) : 1A3F5F41
CRC32 hash : 1A3F5F41
CRC32 hash (skip zero) : 53DDA941
AccurateRip v1 signature : D92A0A51
AccurateRip v2 signature : 3B99479A
->Track not present in AccurateRip database.
Statistics
Read error : 0
Jitter error (maybe fixed) : 0
Retry sector count : 0
Damaged sector count : 0

Track 22
Filename : /Volumes/INTENSO/22 Ottavio Dantone - Act III - Oronte misero (Enticknap, Cavalluzzi).flac

CRC32 hash (test run) : 3AE63DDE
CRC32 hash : 3AE63DDE
CRC32 hash (skip zero) : B0919419
AccurateRip v1 signature : 9529C97E
AccurateRip v2 signature : DA05D38B
->Track not present in AccurateRip database.
Statistics
Read error : 0
Jitter error (maybe fixed) : 0
Retry sector count : 0
Damaged sector count : 0

Track 23
Filename : /Volumes/INTENSO/23 Ottavio Dantone - Act III - Ancor deliri (Sacchi, Enticknap, Di Bianco).flac

CRC32 hash (test run) : 79AD1A9F
CRC32 hash : 79AD1A9F
CRC32 hash (skip zero) : 2C25FC65
AccurateRip v1 signature : 6BF11CCD
AccurateRip v2 signature : 079FF739
->Track not present in AccurateRip database.
Statistics
Read error : 0
Jitter error (maybe fixed) : 0
Retry sector count : 0
Damaged sector count : 0

Track 24
Filename : /Volumes/INTENSO/24 Ottavio Dantone - Act III - Impaziente, o sire (Lomardi Mazzulli, Enticknap, Di Bianco, Sacchi).flac

CRC32 hash (test run) : 5E38C43C
CRC32 hash : 5E38C43C
CRC32 hash (skip zero) : 9E29CC43
AccurateRip v1 signature : 5DC8EA3E
AccurateRip v2 signature : B8F13FAF
->Track not present in AccurateRip database.
Statistics
Read error : 0
Jitter error (maybe fixed) : 0
Retry sector count : 0
Damaged sector count : 0

Track 25
Filename : /Volumes/INTENSO/25 Ottavio Dantone - Act III - Invitto sire (Smith, Sacchi, Enticknap, Lombardi Mazzulli).flac

CRC32 hash (test run) : 36A3857D
CRC32 hash : 36A3857D
CRC32 hash (skip zero) : DDA6BDB1
AccurateRip v1 signature : 95E2B01F
AccurateRip v2 signature : 4689BDD0
->Track not present in AccurateRip database.
Statistics
Read error : 0
Jitter error (maybe fixed) : 0
Retry sector count : 0
Damaged sector count : 0

Track 26
Filename : /Volumes/INTENSO/26 Ottavio Dantone - Act III - Signor, gran nova io porto (Cavalluzzi, Sacchi, Lombardi Mazzulli, Smith, Enticknap, Di Bianco).flac

CRC32 hash (test run) : 250FBB76
CRC32 hash : 250FBB76
CRC32 hash (skip zero) : 5BA618C4
AccurateRip v1 signature : 4B9B6292
AccurateRip v2 signature : 3B98DE16
->Track not present in AccurateRip database.
Statistics
Read error : 0
Jitter error (maybe fixed) : 0
Retry sector count : 0
Damaged sector count : 0

Track 27
Filename : /Volumes/INTENSO/27 Ottavio Dantone - Act III - Sento il nome di Dori (Baráth, Smith, Enticknap, Sacchi).flac

CRC32 hash (test run) : 19F0EF0A
CRC32 hash : 19F0EF0A
CRC32 hash (skip zero) : 7EC955BA
AccurateRip v1 signature : B4E3C06C
AccurateRip v2 signature : 531ABDD3
->Track not present in AccurateRip database.
Statistics
Read error : 0
Jitter error (maybe fixed) : 0
Retry sector count : 0
Damaged sector count : 0

Track 28
Filename : /Volumes/INTENSO/28 Ottavio Dantone - Act III - Figlio, figlio, ove vai (Allegrezza, Enticknap).flac

CRC32 hash (test run) : 896C4970
CRC32 hash : 896C4970
CRC32 hash (skip zero) : B7167FFB
AccurateRip v1 signature : AE6AC654
AccurateRip v2 signature : B8250465
->Track not present in AccurateRip database.
Statistics
Read error : 0
Jitter error (maybe fixed) : 0
Retry sector count : 0
Damaged sector count : 0

Track 29
Filename : /Volumes/INTENSO/29 Ottavio Dantone - Act III - Pur ti veggio, o mia vita (Enticknap, Ascioti, Sacchi, Lombardi Mazzulli, Baráth, Smith, Allegrezza).flac

CRC32 hash (test run) : 672534EC
CRC32 hash : 672534EC
CRC32 hash (skip zero) : 2961E0A0
AccurateRip v1 signature : E1C7E2E1
AccurateRip v2 signature : 13C85552
->Track not present in AccurateRip database.
Statistics
Read error : 0
Jitter error (maybe fixed) : 0
Retry sector count : 0
Damaged sector count : 0

No errors occurred

End of status report

––-BEGIN XLD SIGNATURE––-
LWLP.Nby_SgsXylcKg2uMgFUQmIHaYHTRACDqo09dmVQHsitG37DPXLmHD4ufe.Pg8fpDsXCFqIUUFEqvuSCRoR5MRD6fLzlmxJpkce
––-END XLD SIGNATURE––-

Ottavio Dantone, Accademia Bizantina - Pietro Antonio Cesti: La  Dori (2020)

Thanks to the original releaser