Subcategories

Ottavio Dantone, Accademia Bizantina - Vivaldi: Il Tamerlano (Il Bajazet) (2020)

Posted By: ArlegZ
Ottavio Dantone, Accademia Bizantina - Vivaldi: Il Tamerlano (Il Bajazet) (2020)

Ottavio Dantone, Accademia Bizantina - Vivaldi: Il Tamerlano (Il Bajazet) (2020)
EAC | FLAC | Tracks (Cue & Log) ~ 752 Mb | Total time: 67:50 | Scans included
Classical | Label: Naïve | OP 7080 | Recorded: 2020

Thanks to this tenth recording by Accademia Bizantina in the central core of the Vivaldi Edition, Il Tamerlano can now take its justly earned place in the Vivaldi catalogue, helping to renew the name and reputation of Timur, the Tartar emperor whose memory was later overshadowed by the Ottoman sultan. Vivaldi's opera was first performed during the Venice Carnival of 1735, and resurrected in 2005 under the title Bajazet. Here, under the musical direction of Ottavio Dantone, we have a sextet of dramatically engaged virtuoso soloists, and an orchestra that is perfectly aware of Vivaldi's musical dialectic. All the soloists are superbly well equipped to deal with the Red Priest's acrobatic and inventive writing here seen in the context of several of his contemporaries. To meet the wishes of the Accademia Filarmonica that gave him the commission, Vivaldi chose to set a libretto by Agostino Piovene, who was famed throughout Italy, and the composer decided on the form of the pasticcio, enabling him to profile his principal singers by bringing in arias from his own works, also from operas by other composers such as Giacomelli, Farinelli's brother Broschi, and Hasse. Bernardo Ticci's edition used in this recording also inserts five further insertion arias that were definitely sung at the 1735 performance, but are absent from the score. In spite of the composite nature of the work, Il Tamerlano is an accomplished musical drama presenting a wide palette of emotions and colours inspired by elements of love and war. Particularly moving is Irene's famous aria of despair 'Sposa son disprezzata' from Act II of Giacomelli's opera, sung here by Sophie Rennert, also Timur's impassioned 'Dovè la figlia?', and 'Barbaro traditor', Bajazet's Act III aria by Broschi, sung here by Filippo Mineccia in the role of Bajazet.

Performer:
Bajazet – Bruno Taddia, baritone
Tamerlano – Filippo Mineccia, countertenor
Asteria – Delphine Galou, contralto
Irene – Sophie Rennert, soprano
Andronico – Marina De Liso, mezzo-soprano
Idaspe – Arianna Vendittelli, soprano
Accademia Bizantina
Ottavio Dantone – conductor and harpsichord

Track List:
CD1:
Sinfonia
01. Allegro
02. Andante molto
03. Allegro
ATTO I
04. Scena 1 [Bajazet, Andronico] Recitativo
05. Scena 1 [Bajazet] Aria: Del destin non dee lagnarsi
06. Scena 2 [Andronico, Idaspe] Recitativo
07. Scena 2 [Idaspe] Aria: Nasce rosa lusinghiera
08. Scena 3 [Tamerlano, Andronico] Recitativo
09. Scena 3 [Tamerlano] Aria: In sì torbida procella
10. Scena 4 [Andronico] Recitativo
11. Scena 4 [Andronico] Aria: Quel ciglio vezzosetto
12. Scena 5 [Asteria] Recitativo
13. Scena 6 [Tamerlano, Asteria] Recitativo
14. Scena 6 [Tamerlano] Aria: Vedeste mai sul prato
15. Scena 7 [Asteria] Recitativo
16. Scena 8 [Bajazet, Andronico, Asteria] Recitativo
17. Scena 9 [Andronico, Asteria] Recitativo
18. Scena 9 [Asteria] Aria: Amare un'alma ingrata
19. Scena 10 [Andronico, Idaspe] Recitativo
20. Scena 11 [Irene, Andronico, Idaspe] Recitativo
21. Scena 11 [Irene] Aria: Qual guerriero in campo armato
22. Scena 12 [Andronico] Recitativo
23. Scena 12 [Andronico] Aria: Non ho nel sen costanza
CD2:
ATTO II
01. Scena 1 [Tamerlano, Andronico] Recitativo
02. Scena 2 [Andronico, Idaspe] Recitativo
03. Scena 2 [Idaspe] Aria: Anch'il mar par che sommerga
04. Scena 3 [Asteria, Andronico] Recitativo
05. Scena 3 [Asteria] Aria: Stringi le mia catene
06. Scena 4 [Andronico] Recitativo
07. Scena 4 [Andronico] Aria: La sorte mia spietata
08. Scena 5 [Idaspe, Tamerlano, Irene, Asteria] Recitativo
09. Scena 5 [Tamerlano] Aria: Cruda sorte, avverso fato
10. Scena 6 [Asteria, Irene] Recitativo
11. Scena 6 [Asteria] Aria: La cervetta timidetta
12. Scena 7 [Irene, Idaspe] Recitativo
13. Scena 7 [Irene] Aria: Sposa son disprezzata
14. Scena 8 [Bajazet, Andronico] Recitativo
15. Scena 8 [Bajazet] Aria: Dov’è la figlia?
16. Scena 9 [Tamerlano, Bajazet, Asteria] Recitativo
17. Scena 10 [Bajazet] Recitativo accompagnato
18. Scena 10 [Andronico, Irene, Tamerlano, Bajazet, Asteria] Recitativo
19. Scena 10 [Tamerlano] Recitativo accompagnato
20. Scena 10 [Andronico] Recitativo
21. Scena 10 [Irene, Tamerlano, Bajazet, Asteria] Quartetto: Sì crudel questo è l’amore
CD3:
ATTO III
01. Scena 1 [Asteria, Bajazet] Recitativo
02. Scena 1 [Bajazet] Aria: Veder parmi or che nel fondo
03. Scena 2 [Asteria] Recitativo
04. Scena 3 [Tamerlano, Asteria, Andronico] Recitativo
05. Scena 4 [Tamerlano] Recitativo
06. Scena 4 [Tamerlano] Aria: Barbaro traditor
07. Scena 5 [Andronico, Asteria] Recitativo
08. Scena 5 [Asteria] Aria: Qual furore, qual affanno
09. Scena 6 [Idaspe, Andronico] Recitativo
10. Scena 6 [Idaspe] Aria: D’ira e furor armato
11. Scena 7 [Andronico] Recitativo
12. Scena 7 [Andronico] Aria: Spesso tra vaghe rose
13. Scena 8 [Tamerlano, Bajazet] Recitativo
14. Scena 9 [Tamerlano, Bajazet, Asteria, Andronico] Recitativo
15. Scena 10 [Andronico, Irene, Tamerlano, Bajazet, Asteria] Recitativo
16. Scena 10 [Bajazet] Aria: Verrò crudel spietato
17. Scena 11 [Irene, Tamerlano] Recitativo
18. Scena 11 [Irene] Aria: Son tortorella
19. Scena 12 [Idaspe, Andronico, Irene, Tamerlano] Recitativo
20. Scena 13 [Asteria] Recitativo accompagnato
21. Scena 13 [Asteria] Aria: Svena, uccidi, abbatti, atterra
22. Scena ultima [Andronico, Irene, Tamerlano] Recitativo
23. Scena ultima [Coro] Coronata di gigli e di rose


Exact Audio Copy V1.5 from 20. February 2020

EAC extraction logfile from 8. November 2020, 13:46

Ottavio Dantone / Vivaldi - Il Tamerlano (Il Bajazet) CD1

Used drive : PIONEER DVD-RW DVR-218L Adapter: 1 ID: 0

Read mode : Secure
Utilize accurate stream : Yes
Defeat audio cache : Yes
Make use of C2 pointers : No

Read offset correction : 6
Overread into Lead-In and Lead-Out : No
Fill up missing offset samples with silence : Yes
Delete leading and trailing silent blocks : No
Null samples used in CRC calculations : Yes
Used interface : Native Win32 interface for Win NT & 2000
Gap handling : Not detected, thus appended to previous track

Used output format : User Defined Encoder
Selected bitrate : 128 kBit/s
Quality : High
Add ID3 tag : No
Command line compressor : C:\Program Files\Exact Audio Copy\Flac\flac.exe
Additional command line options : -V -8 -T "Date=%year%" -T "Genre=%genre%" %source%


TOC of the extracted CD

Track | Start | Length | Start sector | End sector
––––––––––––––––––––––––––––-
1 | 0:00.00 | 2:26.45 | 0 | 10994
2 | 2:26.45 | 2:01.45 | 10995 | 20114
3 | 4:28.15 | 1:07.60 | 20115 | 25199
4 | 5:36.00 | 1:21.30 | 25200 | 31304
5 | 6:57.30 | 3:31.30 | 31305 | 47159
6 | 10:28.60 | 1:00.00 | 47160 | 51659
7 | 11:28.60 | 3:46.30 | 51660 | 68639
8 | 15:15.15 | 2:25.60 | 68640 | 79574
9 | 17:41.00 | 3:33.45 | 79575 | 95594
10 | 21:14.45 | 0:21.15 | 95595 | 97184
11 | 21:35.60 | 3:50.60 | 97185 | 114494
12 | 25:26.45 | 0:55.09 | 114495 | 118628
13 | 26:21.54 | 3:24.51 | 118629 | 133979
14 | 29:46.30 | 3:45.60 | 133980 | 150914
15 | 33:32.15 | 0:16.36 | 150915 | 152150
16 | 33:48.51 | 2:39.54 | 152151 | 164129
17 | 36:28.30 | 0:59.60 | 164130 | 168614
18 | 37:28.15 | 6:22.60 | 168615 | 197324
19 | 43:51.00 | 0:16.45 | 197325 | 198569
20 | 44:07.45 | 2:03.15 | 198570 | 207809
21 | 46:10.60 | 5:07.30 | 207810 | 230864
22 | 51:18.15 | 0:34.00 | 230865 | 233414
23 | 51:52.15 | 5:52.60 | 233415 | 259874


Track 1

Filename C:\ArlegZ\01 Sinfonia- Allegro.wav

Peak level 55.2 %
Extraction speed 0.9 X
Track quality 100.0 %
Test CRC 574D1871
Copy CRC 574D1871
Track not present in AccurateRip database
Copy OK

Track 2

Filename C:\ArlegZ\02 Sinfonia- Andante molto.wav

Peak level 40.8 %
Extraction speed 0.9 X
Track quality 100.0 %
Test CRC 15F67CDA
Copy CRC 15F67CDA
Track not present in AccurateRip database
Copy OK

Track 3

Filename C:\ArlegZ\03 Sinfonia- Allegro.wav

Peak level 53.1 %
Extraction speed 0.8 X
Track quality 100.0 %
Test CRC F8270B85
Copy CRC F8270B85
Track not present in AccurateRip database
Copy OK

Track 4

Filename C:\ArlegZ\04 ATTO I. Scena 1 [Bajazet, Andronico] Recitativo.wav

Peak level 76.2 %
Extraction speed 0.9 X
Track quality 100.0 %
Test CRC 8C4320EA
Copy CRC 8C4320EA
Track not present in AccurateRip database
Copy OK

Track 5

Filename C:\ArlegZ\05 Scena 1 [Bajazet] Aria- Del destin non dee lagnarsi.wav

Peak level 58.7 %
Extraction speed 1.2 X
Track quality 100.0 %
Test CRC 9EBDF996
Copy CRC 9EBDF996
Track not present in AccurateRip database
Copy OK

Track 6

Filename C:\ArlegZ\06 Scena 2 [Andronico, Idaspe] Recitativo.wav

Peak level 45.4 %
Extraction speed 0.9 X
Track quality 100.0 %
Test CRC 1C29C514
Copy CRC 1C29C514
Track not present in AccurateRip database
Copy OK

Track 7

Filename C:\ArlegZ\07 Scena 2 [Idaspe] Aria- Nasce rosa lusinghiera.wav

Peak level 63.6 %
Extraction speed 1.1 X
Track quality 99.9 %
Test CRC AEA75663
Copy CRC AEA75663
Track not present in AccurateRip database
Copy OK

Track 8

Filename C:\ArlegZ\08 Scena 3 [Tamerlano, Andronico] Recitativo.wav

Peak level 63.6 %
Extraction speed 1.3 X
Track quality 100.0 %
Test CRC 187E7394
Copy CRC 187E7394
Track not present in AccurateRip database
Copy OK

Track 9

Filename C:\ArlegZ\09 Scena 3 [Tamerlano] Aria- In sì torbida procella.wav

Peak level 91.3 %
Extraction speed 1.4 X
Track quality 100.0 %
Test CRC 250DA7AD
Copy CRC 250DA7AD
Track not present in AccurateRip database
Copy OK

Track 10

Filename C:\ArlegZ\10 Scena 4 [Andronico] Recitativo.wav

Peak level 33.8 %
Extraction speed 0.3 X
Track quality 99.4 %
Test CRC FC64E8CE
Copy CRC FC64E8CE
Track not present in AccurateRip database
Copy OK

Track 11

Filename C:\ArlegZ\11 Scena 4 [Andronico] Aria- Quel ciglio vezzosetto.wav

Peak level 75.9 %
Extraction speed 1.5 X
Track quality 100.0 %
Test CRC 1A16C3B8
Copy CRC 1A16C3B8
Track not present in AccurateRip database
Copy OK

Track 12

Filename C:\ArlegZ\12 Scena 5 [Asteria] Recitativo.wav

Peak level 56.8 %
Extraction speed 0.7 X
Track quality 99.8 %
Test CRC FC6BD228
Copy CRC FC6BD228
Track not present in AccurateRip database
Copy OK

Track 13

Filename C:\ArlegZ\13 Scena 6 [Tamerlano, Asteria] Recitativo.wav

Peak level 62.1 %
Extraction speed 1.6 X
Track quality 100.0 %
Test CRC E2E8EE20
Copy CRC E2E8EE20
Track not present in AccurateRip database
Copy OK

Track 14

Filename C:\ArlegZ\14 Scena 6 [Tamerlano] Aria- Vedeste mai sul prato.wav

Peak level 72.8 %
Extraction speed 1.7 X
Track quality 100.0 %
Test CRC A6244A66
Copy CRC A6244A66
Track not present in AccurateRip database
Copy OK

Track 15

Filename C:\ArlegZ\15 Scena 7 [Asteria] Recitativo.wav

Peak level 40.1 %
Extraction speed 0.6 X
Track quality 100.0 %
Test CRC 0A3F1900
Copy CRC 0A3F1900
Track not present in AccurateRip database
Copy OK

Track 16

Filename C:\ArlegZ\16 Scena 8 [Bajazet, Andronico, Asteria] Recitativo.wav

Peak level 65.3 %
Extraction speed 1.4 X
Track quality 99.9 %
Test CRC 5C36967C
Copy CRC 5C36967C
Track not present in AccurateRip database
Copy OK

Track 17

Filename C:\ArlegZ\17 Scena 9 [Andronico, Asteria] Recitativo.wav

Peak level 53.1 %
Extraction speed 1.3 X
Track quality 100.0 %
Test CRC E36697B6
Copy CRC E36697B6
Track not present in AccurateRip database
Copy OK

Track 18

Filename C:\ArlegZ\18 Scena 9 [Asteria] Aria- Amare un'alma ingrata.wav

Peak level 42.1 %
Extraction speed 1.8 X
Track quality 99.9 %
Test CRC 902AFC27
Copy CRC 902AFC27
Track not present in AccurateRip database
Copy OK

Track 19

Filename C:\ArlegZ\19 Scena 10 [Andronico, Idaspe] Recitativo.wav

Peak level 45.2 %
Extraction speed 0.4 X
Track quality 99.3 %
Test CRC 8B4864C1
Copy CRC 8B4864C1
Track not present in AccurateRip database
Copy OK

Track 20

Filename C:\ArlegZ\20 Scena 11 [Irene, Andronico, Idaspe] Recitativo.wav

Peak level 54.6 %
Extraction speed 1.7 X
Track quality 100.0 %
Test CRC B02DD7AA
Copy CRC B02DD7AA
Track not present in AccurateRip database
Copy OK

Track 21

Filename C:\ArlegZ\21 Scena 11 [Irene] Aria- Qual guerriero in campo armato.wav

Peak level 94.0 %
Extraction speed 1.8 X
Track quality 99.9 %
Test CRC B2EB0F8C
Copy CRC B2EB0F8C
Track not present in AccurateRip database
Copy OK

Track 22

Filename C:\ArlegZ\22 Scena 12 [Andronico] Recitativo.wav

Peak level 38.5 %
Extraction speed 1.1 X
Track quality 100.0 %
Test CRC 73E25062
Copy CRC 73E25062
Track not present in AccurateRip database
Copy OK

Track 23

Filename C:\ArlegZ\23 Scena 12 [Andronico] Aria- Non ho nel sen costanza.wav

Peak level 62.9 %
Extraction speed 2.2 X
Track quality 100.0 %
Test CRC C7DFB64D
Copy CRC C7DFB64D
Track not present in AccurateRip database
Copy OK


None of the tracks are present in the AccurateRip database

No errors occurred

End of status report

–– CUETools DB Plugin V2.1.6

[CTDB TOCID: eH0ywxY_pB4lYN6zEgCedXwbTrw-] found
Submit result: already submitted
Track | CTDB Status
1 | (4/4) Accurately ripped
2 | (4/4) Accurately ripped
3 | (4/4) Accurately ripped
4 | (4/4) Accurately ripped
5 | (4/4) Accurately ripped
6 | (4/4) Accurately ripped
7 | (3/4) Accurately ripped, or (1/4) differs in 35 samples @00:03:60
8 | (4/4) Accurately ripped
9 | (4/4) Accurately ripped
10 | (4/4) Accurately ripped
11 | (4/4) Accurately ripped
12 | (4/4) Accurately ripped
13 | (4/4) Accurately ripped
14 | (4/4) Accurately ripped
15 | (4/4) Accurately ripped
16 | (4/4) Accurately ripped
17 | (4/4) Accurately ripped
18 | (4/4) Accurately ripped
19 | (4/4) Accurately ripped
20 | (4/4) Accurately ripped
21 | (4/4) Accurately ripped
22 | (4/4) Accurately ripped
23 | (4/4) Accurately ripped


==== Log checksum D24F92738FF03DA6CBC86016410300D6319001EBE5C6C3B654ED908F419C8422 ====


Exact Audio Copy V1.5 from 20. February 2020

EAC extraction logfile from 8. November 2020, 15:08

Ottavio Dantone / Vivaldi - Il Tamerlano (Il Bajazet) CD2

Used drive : PIONEER DVD-RW DVR-218L Adapter: 1 ID: 0

Read mode : Secure
Utilize accurate stream : Yes
Defeat audio cache : Yes
Make use of C2 pointers : No

Read offset correction : 6
Overread into Lead-In and Lead-Out : No
Fill up missing offset samples with silence : Yes
Delete leading and trailing silent blocks : No
Null samples used in CRC calculations : Yes
Used interface : Native Win32 interface for Win NT & 2000
Gap handling : Not detected, thus appended to previous track

Used output format : User Defined Encoder
Selected bitrate : 128 kBit/s
Quality : High
Add ID3 tag : No
Command line compressor : C:\Program Files\Exact Audio Copy\Flac\flac.exe
Additional command line options : -V -8 -T "Date=%year%" -T "Genre=%genre%" %source%


TOC of the extracted CD

Track | Start | Length | Start sector | End sector
––––––––––––––––––––––––––––-
1 | 0:00.00 | 1:19.69 | 0 | 5993
2 | 1:19.69 | 0:50.30 | 5994 | 9773
3 | 2:10.24 | 4:09.21 | 9774 | 28469
4 | 6:19.45 | 1:30.39 | 28470 | 35258
5 | 7:50.09 | 3:19.21 | 35259 | 50204
6 | 11:09.30 | 0:34.60 | 50205 | 52814
7 | 11:44.15 | 5:16.45 | 52815 | 76559
8 | 17:00.60 | 2:11.21 | 76560 | 86405
9 | 19:12.06 | 4:41.39 | 86406 | 107519
10 | 23:53.45 | 0:47.30 | 107520 | 111074
11 | 24:41.00 | 4:48.15 | 111075 | 132689
12 | 29:29.15 | 0:35.30 | 132690 | 135344
13 | 30:04.45 | 5:41.30 | 135345 | 160949
14 | 35:46.00 | 0:55.00 | 160950 | 165074
15 | 36:41.00 | 3:12.30 | 165075 | 179504
16 | 39:53.30 | 1:46.45 | 179505 | 187499
17 | 41:40.00 | 2:01.63 | 187500 | 196637
18 | 43:41.63 | 1:38.21 | 196638 | 204008
19 | 45:20.09 | 0:26.21 | 204009 | 205979
20 | 45:46.30 | 0:10.45 | 205980 | 206774
21 | 45:57.00 | 3:34.00 | 206775 | 222824


Track 1

Filename C:\ArlegZ\01 ATTO II. Scena 1 [Tamerlano, Andronico] Recitativo.wav

Peak level 54.2 %
Extraction speed 0.7 X
Track quality 100.0 %
Test CRC C14536B7
Copy CRC C14536B7
Track not present in AccurateRip database
Copy OK

Track 2

Filename C:\ArlegZ\02 Scena 2 [Andronico, Idaspe] Recitativo.wav

Peak level 67.3 %
Extraction speed 0.6 X
Track quality 100.0 %
Test CRC C0D56E9F
Copy CRC C0D56E9F
Track not present in AccurateRip database
Copy OK

Track 3

Filename C:\ArlegZ\03 Scena 2 [Idaspe] Aria- Anch'il mar par che sommerga.wav

Peak level 77.7 %
Extraction speed 1.1 X
Track quality 100.0 %
Test CRC F86032D0
Copy CRC F86032D0
Track not present in AccurateRip database
Copy OK

Track 4

Filename C:\ArlegZ\04 Scena 3 [Asteria, Andronico] Recitativo.wav

Peak level 69.7 %
Extraction speed 0.9 X
Track quality 100.0 %
Test CRC 9F746540
Copy CRC 9F746540
Track not present in AccurateRip database
Copy OK

Track 5

Filename C:\ArlegZ\05 Scena 3 [Asteria] Aria- Stringi le mia catene.wav

Peak level 74.8 %
Extraction speed 1.2 X
Track quality 100.0 %
Test CRC 1230BE75
Copy CRC 1230BE75
Track not present in AccurateRip database
Copy OK

Track 6

Filename C:\ArlegZ\06 Scena 4 [Andronico] Recitativo.wav

Peak level 45.7 %
Extraction speed 0.7 X
Track quality 100.0 %
Test CRC B97351C7
Copy CRC B97351C7
Track not present in AccurateRip database
Copy OK

Track 7

Filename C:\ArlegZ\07 Scena 4 [Andronico] Aria- La sorte mia spietata.wav

Peak level 69.3 %
Extraction speed 1.4 X
Track quality 100.0 %
Test CRC C09B7C66
Copy CRC C09B7C66
Track not present in AccurateRip database
Copy OK

Track 8

Filename C:\ArlegZ\08 Scena 5 [Idaspe, Tamerlano, Irene, Asteria] Recitativo.wav

Peak level 78.1 %
Extraction speed 1.3 X
Track quality 100.0 %
Test CRC 70EB1193
Copy CRC 70EB1193
Track not present in AccurateRip database
Copy OK

Track 9

Filename C:\ArlegZ\09 Scena 5 [Tamerlano] Aria- Cruda sorte, avverso fato.wav

Peak level 90.2 %
Extraction speed 1.4 X
Track quality 99.9 %
Test CRC D9FE5605
Copy CRC D9FE5605
Track not present in AccurateRip database
Copy OK

Track 10

Filename C:\ArlegZ\10 Scena 6 [Asteria, Irene] Recitativo.wav

Peak level 52.0 %
Extraction speed 1.0 X
Track quality 100.0 %
Test CRC D20483B0
Copy CRC D20483B0
Track not present in AccurateRip database
Copy OK

Track 11

Filename C:\ArlegZ\11 Scena 6 [Asteria] Aria- La cervetta timidetta.wav

Peak level 44.5 %
Extraction speed 1.6 X
Track quality 100.0 %
Test CRC 225AC911
Copy CRC 225AC911
Track not present in AccurateRip database
Copy OK

Track 12

Filename C:\ArlegZ\12 Scena 7 [Irene, Idaspe] Recitativo.wav

Peak level 42.5 %
Extraction speed 0.9 X
Track quality 100.0 %
Test CRC 411280AD
Copy CRC 411280AD
Track not present in AccurateRip database
Copy OK

Track 13

Filename C:\ArlegZ\13 Scena 7 [Irene] Aria- Sposa son disprezzata.wav

Peak level 71.5 %
Extraction speed 1.8 X
Track quality 100.0 %
Test CRC D5E9CE62
Copy CRC D5E9CE62
Track not present in AccurateRip database
Copy OK

Track 14

Filename C:\ArlegZ\14 Scena 8 [Bajazet, Andronico] Recitativo.wav

Peak level 68.9 %
Extraction speed 1.2 X
Track quality 100.0 %
Test CRC 00321E0D
Copy CRC 00321E0D
Track not present in AccurateRip database
Copy OK

Track 15

Filename C:\ArlegZ\15 Scena 8 [Bajazet] Aria- Dov’è la figlia.wav

Peak level 83.7 %
Extraction speed 1.8 X
Track quality 100.0 %
Test CRC 79ACB2A3
Copy CRC 79ACB2A3
Track not present in AccurateRip database
Copy OK

Track 16

Filename C:\ArlegZ\16 Scena 9 [Tamerlano, Bajazet, Asteria] Recitativo.wav

Peak level 72.3 %
Extraction speed 1.2 X
Track quality 99.9 %
Test CRC B70CFC61
Copy CRC B70CFC61
Track not present in AccurateRip database
Copy OK

Track 17

Filename C:\ArlegZ\17 Scena 10 [Bajazet] Recitativo accompagnato.wav

Peak level 87.3 %
Extraction speed 1.3 X
Track quality 99.9 %
Test CRC 1F21E69B
Copy CRC 1F21E69B
Track not present in AccurateRip database
Copy OK

Track 18

Filename C:\ArlegZ\18 Scena 10 [Andronico, Irene, Tamerlano, Bajazet, Asteria] Recitativo.wav

Peak level 66.8 %
Extraction speed 1.2 X
Track quality 99.8 %
Test CRC 5ADE0FC5
Copy CRC 5ADE0FC5
Track not present in AccurateRip database
Copy OK

Track 19

Filename C:\ArlegZ\19 Scena 10 [Tamerlano] Recitativo accompagnato.wav

Peak level 53.0 %
Extraction speed 0.9 X
Track quality 100.0 %
Test CRC 84BA2095
Copy CRC 84BA2095
Track not present in AccurateRip database
Copy OK

Track 20

Filename C:\ArlegZ\20 Scena 10 [Andronico] Recitativo.wav

Peak level 11.6 %
Extraction speed 0.2 X
Track quality 98.9 %
Test CRC 3C5500E0
Copy CRC 3C5500E0
Track not present in AccurateRip database
Copy OK

Track 21

Filename C:\ArlegZ\21 Scena 10 [Irene, Tamerlano, Bajazet, Asteria] Quartetto- Sì crudel questo è l’amore.wav

Peak level 78.6 %
Extraction speed 1.9 X
Track quality 100.0 %
Test CRC 2FC5EA61
Copy CRC 2FC5EA61
Track not present in AccurateRip database
Copy OK


None of the tracks are present in the AccurateRip database

No errors occurred

End of status report

–– CUETools DB Plugin V2.1.6

[CTDB TOCID: xL0KkPucHKj8inv0blliwWD.ums-] found
Submit result: already submitted
Track | CTDB Status
1 | (3/3) Accurately ripped
2 | (3/3) Accurately ripped
3 | (3/3) Accurately ripped
4 | (3/3) Accurately ripped
5 | (3/3) Accurately ripped
6 | (3/3) Accurately ripped
7 | (3/3) Accurately ripped
8 | (3/3) Accurately ripped
9 | (3/3) Accurately ripped
10 | (3/3) Accurately ripped
11 | (3/3) Accurately ripped
12 | (3/3) Accurately ripped
13 | (3/3) Accurately ripped
14 | (3/3) Accurately ripped
15 | (3/3) Accurately ripped
16 | (3/3) Accurately ripped
17 | (3/3) Accurately ripped
18 | (3/3) Accurately ripped
19 | (3/3) Accurately ripped
20 | (3/3) Accurately ripped
21 | (3/3) Accurately ripped


==== Log checksum 377C4E9E32A487D4D1F503151CA3A103D1712AD6F837CF38CAFFD601D9A3DA0E ====


Exact Audio Copy V1.5 from 20. February 2020

EAC extraction logfile from 8. November 2020, 17:21

Ottavio Dantone / Vivaldi - Il Tamerlano (Il Bajazet) CD3

Used drive : PIONEER DVD-RW DVR-218L Adapter: 1 ID: 0

Read mode : Secure
Utilize accurate stream : Yes
Defeat audio cache : Yes
Make use of C2 pointers : No

Read offset correction : 6
Overread into Lead-In and Lead-Out : No
Fill up missing offset samples with silence : Yes
Delete leading and trailing silent blocks : No
Null samples used in CRC calculations : Yes
Used interface : Native Win32 interface for Win NT & 2000
Gap handling : Not detected, thus appended to previous track

Used output format : User Defined Encoder
Selected bitrate : 128 kBit/s
Quality : High
Add ID3 tag : No
Command line compressor : C:\Program Files\Exact Audio Copy\Flac\flac.exe
Additional command line options : -V -8 -T "Date=%year%" -T "Genre=%genre%" %source%


TOC of the extracted CD

Track | Start | Length | Start sector | End sector
––––––––––––––––––––––––––––-
1 | 0:00.00 | 1:35.00 | 0 | 7124
2 | 1:35.00 | 4:08.45 | 7125 | 25769
3 | 5:43.45 | 0:09.66 | 25770 | 26510
4 | 5:53.36 | 2:33.39 | 26511 | 38024
5 | 8:27.00 | 0:30.00 | 38025 | 40274
6 | 8:57.00 | 4:25.00 | 40275 | 60149
7 | 13:22.00 | 1:04.15 | 60150 | 64964
8 | 14:26.15 | 4:12.45 | 64965 | 83909
9 | 18:38.60 | 0:38.00 | 83910 | 86759
10 | 19:16.60 | 3:33.15 | 86760 | 102749
11 | 22:50.00 | 0:29.30 | 102750 | 104954
12 | 23:19.30 | 6:15.15 | 104955 | 133094
13 | 29:34.45 | 0:55.33 | 133095 | 137252
14 | 30:30.03 | 1:09.72 | 137253 | 142499
15 | 31:40.00 | 2:57.03 | 142500 | 155777
16 | 34:37.03 | 0:41.42 | 155778 | 158894
17 | 35:18.45 | 0:40.60 | 158895 | 161954
18 | 35:59.30 | 5:14.60 | 161955 | 185564
19 | 41:14.15 | 1:05.60 | 185565 | 190499
20 | 42:20.00 | 1:24.30 | 190500 | 196829
21 | 43:44.30 | 2:20.15 | 196830 | 207344
22 | 46:04.45 | 1:11.09 | 207345 | 212678
23 | 47:15.54 | 1:06.21 | 212679 | 217649


Track 1

Filename C:\ArlegZ\01 ATTO III. Scena 1 [Asteria, Bajazet] Recitativo.wav

Peak level 40.3 %
Extraction speed 0.8 X
Track quality 100.0 %
Test CRC 0597C3B4
Copy CRC 0597C3B4
Track not present in AccurateRip database
Copy OK

Track 2

Filename C:\ArlegZ\02 Scena 1 [Bajazet] Aria- Veder parmi or che nel fondo.wav

Peak level 55.6 %
Extraction speed 1.1 X
Track quality 100.0 %
Test CRC C5D186DA
Copy CRC C5D186DA
Track not present in AccurateRip database
Copy OK

Track 3

Filename C:\ArlegZ\03 Scena 2 [Asteria] Recitativo.wav

Peak level 23.2 %
Extraction speed 0.2 X
Track quality 100.0 %
Test CRC A3F46A76
Copy CRC A3F46A76
Track not present in AccurateRip database
Copy OK

Track 4

Filename C:\ArlegZ\04 Scena 3 [Tamerlano, Asteria, Andronico] Recitativo.wav

Peak level 65.3 %
Extraction speed 1.1 X
Track quality 100.0 %
Test CRC 671ABDC9
Copy CRC 671ABDC9
Track not present in AccurateRip database
Copy OK

Track 5

Filename C:\ArlegZ\05 Scena 4 [Tamerlano] Recitativo.wav

Peak level 70.3 %
Extraction speed 0.6 X
Track quality 100.0 %
Test CRC 346D6C7F
Copy CRC 346D6C7F
Track not present in AccurateRip database
Copy OK

Track 6

Filename C:\ArlegZ\06 Scena 4 [Tamerlano] Aria- Barbaro traditor.wav

Peak level 95.1 %
Extraction speed 1.3 X
Track quality 100.0 %
Test CRC EA1EE150
Copy CRC EA1EE150
Track not present in AccurateRip database
Copy OK

Track 7

Filename C:\ArlegZ\07 Scena 5 [Andronico, Asteria] Recitativo.wav

Peak level 58.9 %
Extraction speed 1.0 X
Track quality 100.0 %
Test CRC 00D8110E
Copy CRC 00D8110E
Track not present in AccurateRip database
Copy OK

Track 8

Filename C:\ArlegZ\08 Scena 5 [Asteria] Aria- Qual furore, qual affanno.wav

Peak level 69.7 %
Extraction speed 1.4 X
Track quality 100.0 %
Test CRC A8A17DBB
Copy CRC A8A17DBB
Track not present in AccurateRip database
Copy OK

Track 9

Filename C:\ArlegZ\09 Scena 6 [Idaspe, Andronico] Recitativo.wav

Peak level 55.8 %
Extraction speed 0.8 X
Track quality 100.0 %
Test CRC E848AD87
Copy CRC E848AD87
Track not present in AccurateRip database
Copy OK

Track 10

Filename C:\ArlegZ\10 Scena 6 [Idaspe] Aria- D’ira e furor armato.wav

Peak level 75.0 %
Extraction speed 1.5 X
Track quality 100.0 %
Test CRC 524DF7C0
Copy CRC 524DF7C0
Track not present in AccurateRip database
Copy OK

Track 11

Filename C:\ArlegZ\11 Scena 7 [Andronico] Recitativo.wav

Peak level 43.7 %
Extraction speed 0.7 X
Track quality 100.0 %
Test CRC 6491788A
Copy CRC 6491788A
Track not present in AccurateRip database
Copy OK

Track 12

Filename C:\ArlegZ\12 Scena 7 [Andronico] Aria- Spesso tra vaghe rose.wav

Peak level 76.7 %
Extraction speed 1.7 X
Track quality 100.0 %
Test CRC 7AFB32F2
Copy CRC 7AFB32F2
Track not present in AccurateRip database
Copy OK

Track 13

Filename C:\ArlegZ\13 Scena 8 [Tamerlano, Bajazet] Recitativo.wav

Peak level 62.5 %
Extraction speed 0.8 X
Track quality 99.8 %
Test CRC 3104E43E
Copy CRC 3104E43E
Track not present in AccurateRip database
Copy OK

Track 14

Filename C:\ArlegZ\14 Scena 9 [Tamerlano, Bajazet, Asteria, Andronico] Recitativo.wav

Peak level 70.5 %
Extraction speed 1.2 X
Track quality 100.0 %
Test CRC FD311304
Copy CRC FD311304
Track not present in AccurateRip database
Copy OK

Track 15

Filename C:\ArlegZ\15 Scena 10 [Andronico, Irene, Tamerlano, Bajazet, Asteria] Recitativo.wav

Peak level 86.9 %
Extraction speed 1.6 X
Track quality 100.0 %
Test CRC 03EBDD72
Copy CRC 03EBDD72
Track not present in AccurateRip database
Copy OK

Track 16

Filename C:\ArlegZ\16 Scena 10 [Bajazet] Aria- Verrò crudel spietato.wav

Peak level 60.1 %
Extraction speed 1.0 X
Track quality 100.0 %
Test CRC 94A5F0A1
Copy CRC 94A5F0A1
Track not present in AccurateRip database
Copy OK

Track 17

Filename C:\ArlegZ\17 Scena 11 [Irene, Tamerlano] Recitativo.wav

Peak level 40.7 %
Extraction speed 0.7 X
Track quality 99.7 %
Test CRC B4B87371
Copy CRC B4B87371
Track not present in AccurateRip database
Copy OK

Track 18

Filename C:\ArlegZ\18 Scena 11 [Irene] Aria- Son tortorella.wav

Peak level 82.3 %
Extraction speed 1.9 X
Track quality 100.0 %
Test CRC BE56E0D6
Copy CRC BE56E0D6
Track not present in AccurateRip database
Copy OK

Track 19

Filename C:\ArlegZ\19 Scena 12 [Idaspe, Andronico, Irene, Tamerlano] Recitativo.wav

Peak level 49.6 %
Extraction speed 1.4 X
Track quality 100.0 %
Test CRC 2CBD6D34
Copy CRC 2CBD6D34
Track not present in AccurateRip database
Copy OK

Track 20

Filename C:\ArlegZ\20 Scena 13 [Asteria] Recitativo accompagnato.wav

Peak level 70.2 %
Extraction speed 1.5 X
Track quality 100.0 %
Test CRC B2A39597
Copy CRC B2A39597
Track not present in AccurateRip database
Copy OK

Track 21

Filename C:\ArlegZ\21 Scena 13 [Asteria] Aria- Svena, uccidi, abbatti, atterra.wav

Peak level 77.0 %
Extraction speed 1.7 X
Track quality 100.0 %
Test CRC 47BBEF30
Copy CRC 47BBEF30
Track not present in AccurateRip database
Copy OK

Track 22

Filename C:\ArlegZ\22 Scena ultima [Andronico, Irene, Tamerlano] Recitativo.wav

Peak level 49.5 %
Extraction speed 1.5 X
Track quality 100.0 %
Test CRC A7BA11DE
Copy CRC A7BA11DE
Track not present in AccurateRip database
Copy OK

Track 23

Filename C:\ArlegZ\23 Scena ultima [Coro] Coronata di gigli e di rose.wav

Peak level 75.6 %
Extraction speed 1.4 X
Track quality 100.0 %
Test CRC 240B601B
Copy CRC 240B601B
Track not present in AccurateRip database
Copy OK


None of the tracks are present in the AccurateRip database

No errors occurred

End of status report

–– CUETools DB Plugin V2.1.6

[CTDB TOCID: vLA_LuSqdWRRLyhbyppsImZRD6g-] found
Submit result: already submitted
Track | CTDB Status
1 | (2/2) Accurately ripped
2 | (2/2) Accurately ripped
3 | (2/2) Accurately ripped
4 | (2/2) Accurately ripped
5 | (2/2) Accurately ripped
6 | (2/2) Accurately ripped
7 | (2/2) Accurately ripped
8 | (2/2) Accurately ripped
9 | (2/2) Accurately ripped
10 | (2/2) Accurately ripped
11 | (2/2) Accurately ripped
12 | (2/2) Accurately ripped
13 | (2/2) Accurately ripped
14 | (2/2) Accurately ripped
15 | (2/2) Accurately ripped
16 | (2/2) Accurately ripped
17 | (2/2) Accurately ripped
18 | (2/2) Accurately ripped
19 | (2/2) Accurately ripped
20 | (2/2) Accurately ripped
21 | (2/2) Accurately ripped
22 | (2/2) Accurately ripped
23 | (2/2) Accurately ripped


==== Log checksum 6FE8AA692076F1D4AA1691D006EA089616801BB9D1FBD8C7C11BBF55648666EA ====

Ottavio Dantone, Accademia Bizantina - Vivaldi: Il Tamerlano (Il Bajazet) (2020)