Tags
Language
Tags

Otto Klemperer, Philharmonia Orchestra and Chorus - Bach: Matthäus-Passion (2001)

Posted By: ArlegZ
Otto Klemperer, Philharmonia Orchestra and Chorus - Bach: Matthäus-Passion (2001)

Otto Klemperer, Philharmonia Orchestra and Chorus - Bach: Matthäus-Passion (2001)
EAC | FLAC | Image (Cue & Log) ~ 0.99 Gb | Total time: 223:52 | Scans included
Classical | Label: EMI Classics | 5 67538 2 | Recorded: 1960-1961

In its scale and gravitas, Otto Klemperer’s interpretation of the St Matthew Passion draws on the Bach performance style that developed in the 19th century; but its clarity, its underlying energy, and its superb array of soloists – singers with impeccable operatic credentials – also ensure that full justice is done to the drama of Bach’s sublime retelling of the Gospel story.

Performer:
Peter Pears, tenor (Evangelist)
Dietrich Fischer-Dieskau, baritone (Jesus)
Elisabeth Schwarzkopf, soprano (arias, Pilatus' Weib, Magde)
Christa Ludwig, mezzo-soprano (alto arias)
Nicolai Gedda, tenor (arias)
Walter Berry, bass (arias, Petrus)
John Carol Case, baritone (Judas)
Otakar Kraus, baritone (Pilatus, Priester, Hohepriester)
Helen Watts, mezzo-soprano (Magde, Zeugen)
Geraint Evans, baritone (Priester)
Wilfred Brown, tenor (Zeugen)
Philharmonia Choir & Orchestra
Otto Klemperer, conductor

Track List:
CD1:
Erster teil
01. Nr.1 Chor: Kommt, ihr Töchter
02. Nr.2 Rezitativ: Da Jesus diese Rede (Evangelist / Jesus)
03. Nr.3 Choral: Herzliebster Jesus (Chor I II / Orchester I II)
04. Nr.4 Rezitativ: Da versammelten sich die Hohempriester (Evangelist)
05. Nr.5 Chor: Ja nicht auf das Fest (Chor I II / Orchester I II)
06. Nr.6 Rezitativ: Da nun Jesus (Evangelist)
07. Nr.7 Chor: Wozu dienet dieser Unrat? (Chor I / Orchester I)
08. Nr.8 Rezitativ: Da das Jesus merkete (Evangelist / Jesus)
09. Nr.9 Rezitativ: Du lieber Heiland du (Alt / Orchester I)
10. Nr.10 Arie: Buß' und Reu' (Alt / Orchester I)
11. Nr.11 Rezitativ: Da ging hin der Zwölfen einer (Evangelist / Judas)
12. Nr.12 Arie: Blute nur, du liebes Herz (Sopran / Orchester II)
13. Nr.13 Rezitativ: Aber am erstern Tage (Evangelist)
14. Nr.14 Chor: Wo willst du (Chor I / Orchester I)
15. Nr.15 Rezitativ: Er sprach: Gehet hin (Evangelist / Jesus) - Herr, bin ich's? (Chor I / Orchester I)
16. Nr.16 Choral: Ich bin's, ich sollte büßen (Chor I II / Orchester I II)
17. Nr.17 Rezitativ: Er antwortete und sprach: Der mit der Hand mit mir (Evangelist / Jesus / Judas)
18. Nr.18 Rezitativ: Wiewohl mein Herz (Sopran / Orchester I)
19. Nr.19 Arie: Ich will dir mein Herze schenken (Sopran / Orchester I)
20. Nr.20 Rezitativ: Und da sie den Lobgesang (Evangelist / Jesus)
21. Nr.21 Choral: Erkenne mich, mein Hüter (Chor I II / Orchester I II)
22. Nr.22 Rezitativ: Petrus aber antwortete (Evangelist / Petrus / Jesus)
23. Nr.23 Choral: Ich will hier (Chor I II / Orchester I II)
24. Nr.24 Rezitativ: Da kam Jesus (Evangelist / Jesus)
25. Nr.25 Rezitativ: O Schmerz! (Tenor / Orchester I) Choral: Was ist die Ursach (Chor II / Orchester II)
26. Nr.26 Arie: Ich will bei meinem Jesu (Tenor / Orchester I) mit Chor: - So schlafen unsre Sünden ein (Chor II / Orchester II)
27. Nr.27 Rezitativ: Und ging hin wenig (Evangelist / Jesus)
28. Nr.28 Rezitativ: Der Heiland fällt (Baß / Orchester II)
29. Nr.29 Arie: Gerne will ich mich bequemen (Baß / Orchester II)
30. Nr.30 Rezitativ: Und er kam zu seinen Jüngern (Evangelist / Jesus)
31. Nr.31 Choral: Was mein Gott will (Chor I II / Orchester I II)
CD2:
01. Nr.32 Rezitativ: Und er er kam (Evangelist / Jesus / Judas)
02. Nr.33 Duett: So ist mein Jesus nun gefangen (Sopran / Alt / Orchester I / Chor II / Orchester II) -Chor: Sind Blitze, sind Donner (Chor I II / Orchester I II)
03. Nr.34 Rezitativ: Und siehe, einer aus denen (Evangelist / Jesus)
04. Nr.35 Choral: O Mensch, bewein dein Sünde groß (Chor I II / Orchester I II / Ripieno)
Zweiter teil
05. Nr.36 Ach, nun ist mein Jesus hin (Alt / Chor I) mit Chor: Wo ist denn dein Freund (Chor II / Orchester II)
06. Nr.37 Rezitativ: Die aber Jesum gegriffen hatten (Evangelist)
07. Nr.38 Choral: Mir hat die Welt (Chor I II / Orchester I II)
08. Nr.39 Rezitativ: Und wiewohl viel falsche Zeugen herzutraten (Evangelist / Zwei Zeugen / Hohepriester)
09. Nr.40 Mein Jesus schweigt (Tenor, 2 oboi, biola da gamba, continuo)
10. Nr.41 Arie: Geduld, wenn mich falsche Zungen stechen (Tenor, viola da gamba, continuo)
11. Nr.42 Rezitativ: Und der Hohepriester (Evangelist / Hohepriester / Jesus) mit Chor: Er ist des Todes schuldig! (Chor I II / Orchester I II)
12. Nr.43 Rezitativ: Da speieten sie (Evangelist) mit Chor: Weissage, weissage (Chor I II / Orchester I II)
13. Nr.44 Choral: Wer hat dich so geschlagen (Chor I II / Orchester I II)
14. Nr.45 Rezitativ: Petrus aber saß draußen im Palast (Evangelist / Zwei Mägde / Petrus) mit Chor: Wahrlich, du bist auch einer von denen (Chor II / Orchester II)
15. Nr.46 Rezitativ: Da hub er an, sich zu verfluchen (Evangelist / Petrus)
16. Nr.47 Arie: Erbarme dich, mein Gott (Alt / Solo Violine / Orchester I)
17. Nr.48 Choral: Bin ich gleich von dir gewichen (Chor I II / Orchester I II)
18. Nr.49 Rezitativ: Des Morgens aber (Evangelist / Judas) mit Chor: Was gehet uns das an? (Chor I II / Orchester I II)
19. Nr.50 Rezitativ: Und er warf die Silberlinge (Evangelist / Zwei Priester)
20. Nr.51 Arie: Gebt mir meinen Jesum wieder! (Baß / Siki Violine / Orchester II)
21. Nr.52 Rezitativ: Sie hielten aber einen Rat (Evangelist / Pilatus / Jesus)
22. Nr.53 Choral: Befiehl du deine Wege (Chor I II / Orchester II)
23. Nr.54 Rezitativ: Auf das Fest aber hatte (Evangelist / Pilati Weib / Pilatus) mit Chor: Barabbam! LaB ihn kreuzigen! (Chor I II / Orchester I II)
24. Nr.55 Choral: Wie wunderbarlich (Chor I II / Orchester I II)
25. Nr.56 Rezitativ: Der Landpfleger sagte: Was hat er denn Uebels getan (Evangelist / Pilatus)
26. Nr.57 Rezitativ: Er hat uns allen wohlgetan (Sopran / 2 oboi da caccia / continuo)
27. Nr.58 Arie: Aus Liebe will mein Heiland sterben (Sopran / Flöte / 2 Oboi da caccia)
CD3:
01. Nr.59 Rezitativ: Sie schrieen aber noch mehr (Evangelist / Pilatus) Chor: LaB ihn kreuzigen! (Chor I II / Orchester I II)
02. Nr.60 Rezitativ: Erbarm' es Gott! (Alt / Orchester II)
03. Nr.61 Arie: Können Tränen meiner Wangen (Alt / Orchester II)
04. Nr.62 Rezitativ: Da nahmen die Kriegsknechte (Evangelist) mit Chor: Gegrüßet seist du (Chor I II / Orchester I II)
05. Nr.63 Choral: O Haupt voll Blut und Wunden (Chor I II / Orchester I II)
06. Nr.64 Rezitativ: Und da sie ihn verspottet hatten (Evangelist)
07. Nr.65 Rezitativ: Ja! freilich will in uns das Fleisch und Blut (Baß / 2 Flöten / Viola da gamba / continuo)
08. Nr.66 Arie: Komm, sußes Kreuz (Baß / Viola da gamba / continuo)
09. Nr.67 Rezitativ:Und da sie an die Stätte kamen (Evangelist) mit Chor: Der du den Tempe! (Chor I II / Orchester I II)
10. Nr.68 Rezitativ: Desgleichen schmäheten ihn (Evangelist)
11. Nr.69 Rezitativ: Ach, Golgatha (Alt / 2 Oboi da caccia / continuo)
12. Nr.70 Arie mit Chor:Sehet. Jesus hat die Hand (Alt / 2 Oboi da caccia / continuo / Chor II / Orchester II)
13. Nr.71 Rezitativ:Und von der sechsten Stunde (Evangelist / Jesus) mit Chor: Der rufet den Elias (Chor I II / Orchester I II)
14. Nr.72 Choral: Wenn ich einmal soll scheiden (Chor I II / Orchester I II)
15. Nr.73 Rezitativ mid Chor:Und siehe da (Evangelist / Chor I II / Orchester I II)
16. Nr.74 Rezitativ: Am Abend, da es kühle war (Baß / Orchester I)
17. Nr.75 Arie: Mache dich, mein Herze rein (Baß / Orchester I)
18. Nr.76 Rezitativ:Und Joseph nahm den Leib (Evangelist / Pilatus) Chor: Herr, wir haben gedacht (Chor I II / Orchester I II)
19. Nr.77 Rezitativ: Nun ist der Herr zur Ruh gebracht (Sopran / Alt / Tenor / Baß / Chor II / Orchester I II)
20. Nr.78 Chor: Wir setzen uns mit Tränen nieder (Chor I II / Orchester I II)


Exact Audio Copy V1.3 from 2. September 2016

EAC extraction logfile from 15. April 2020, 0:02

Peter Pears, Dietrich Fischer-Dieskau, Elisabeth Schwarzkopf, Christa Ludwig, Nicolai Gedda, Walter Berry, John Carol Case, Ota / Bach - St. Matthew Passion (Disc 1)

Used drive : ATAPI iHAS124 F Adapter: 1 ID: 0

Read mode : Secure
Utilize accurate stream : Yes
Defeat audio cache : Yes
Make use of C2 pointers : No

Read offset correction : 6
Overread into Lead-In and Lead-Out : No
Fill up missing offset samples with silence : Yes
Delete leading and trailing silent blocks : No
Null samples used in CRC calculations : Yes
Used interface : Native Win32 interface for Win NT & 2000

Used output format : User Defined Encoder
Selected bitrate : 1024 kBit/s
Quality : High
Add ID3 tag : No
Command line compressor : C:\Program Files (x86)\Exact Audio Copy\FLAC\FLAC.EXE
Additional command line options : -6 -V -T "ARTIST=%artist%" -T "TITLE=%title%" -T "ALBUM=%albumtitle%" -T "DATE=%year%" -T "TRACKNUMBER=%tracknr%" -T "GENRE=%genre%" -T "COMMENT=%comment%" -T "BAND=%albuminterpret%" -T "ALBUMARTIST=%albuminterpret%" -T "COMPOSER=%composer%" %haslyrics%–tag-from-file=LYRICS="%lyricsfile%"%haslyrics% -T "DISCNUMBER=%cdnumber%" -T "TOTALDISCS=%totalcds%" -T "TOTALTRACKS=%numtracks%" %hascover%–picture="%coverfile%"%hascover% %source% -o %dest%


TOC of the extracted CD

Track | Start | Length | Start sector | End sector
––––––––––––––––––––––––––––-
1 | 0:00.00 | 11:47.44 | 0 | 53068
2 | 11:47.44 | 0:55.64 | 53069 | 57257
3 | 12:43.33 | 1:28.38 | 57258 | 63895
4 | 14:11.71 | 0:32.23 | 63896 | 66318
5 | 14:44.19 | 0:18.16 | 66319 | 67684
6 | 15:02.35 | 0:41.17 | 67685 | 70776
7 | 15:43.52 | 0:35.41 | 70777 | 73442
8 | 16:19.18 | 1:53.02 | 73443 | 81919
9 | 18:12.20 | 1:05.33 | 81920 | 86827
10 | 19:17.53 | 4:51.01 | 86828 | 108653
11 | 24:08.54 | 0:46.09 | 108654 | 112112
12 | 24:54.63 | 5:13.13 | 112113 | 135600
13 | 30:08.01 | 0:14.25 | 135601 | 136675
14 | 30:22.26 | 0:25.41 | 136676 | 138591
15 | 30:47.67 | 2:02.64 | 138592 | 147805
16 | 32:50.56 | 1:34.03 | 147806 | 154858
17 | 34:24.59 | 3:57.57 | 154859 | 172690
18 | 38:22.41 | 1:31.61 | 172691 | 179576
19 | 39:54.27 | 4:02.73 | 179577 | 197799
20 | 43:57.25 | 1:24.10 | 197800 | 204109
21 | 45:21.35 | 1:51.43 | 204110 | 212477
22 | 47:13.03 | 1:18.71 | 212478 | 218398
23 | 48:31.74 | 1:53.01 | 218399 | 226874
24 | 50:25.00 | 2:06.59 | 226875 | 236383
25 | 52:31.59 | 3:05.59 | 236384 | 250317
26 | 55:37.43 | 6:14.57 | 250318 | 278424
27 | 61:52.25 | 0:53.67 | 278425 | 282466
28 | 62:46.17 | 1:21.42 | 282467 | 288583
29 | 64:07.59 | 6:35.21 | 288584 | 318229
30 | 70:43.05 | 1:35.48 | 318230 | 325402
31 | 72:18.53 | 2:06.22 | 325403 | 334874


Range status and errors

Selected range

Filename C:\EACRip\Bach - St. Matthew Passion (Otto Klemperer) (2001 [1962])\CD1\Bach - St. Matthew Passion (Disc 1) - Otto Klemperer.wav

Peak level 57.9 %
Extraction speed 9.6 X
Range quality 100.0 %
Test CRC CF6E07CA
Copy CRC CF6E07CA
Copy OK

No errors occurred


AccurateRip summary

Track 1 accurately ripped (confidence 32) [7329CCB5] (AR v2)
Track 2 accurately ripped (confidence 32) [CFB86A80] (AR v2)
Track 3 accurately ripped (confidence 32) [7A5206F6] (AR v2)
Track 4 accurately ripped (confidence 32) [3EAC4620] (AR v2)
Track 5 accurately ripped (confidence 32) [8A7E128B] (AR v2)
Track 6 accurately ripped (confidence 32) [9577611A] (AR v2)
Track 7 accurately ripped (confidence 32) [E36481F9] (AR v2)
Track 8 accurately ripped (confidence 32) [3E604C1F] (AR v2)
Track 9 accurately ripped (confidence 32) [41DF4264] (AR v2)
Track 10 accurately ripped (confidence 32) [2EBAFAB9] (AR v2)
Track 11 accurately ripped (confidence 32) [C44FD09B] (AR v2)
Track 12 accurately ripped (confidence 32) [3CBD1299] (AR v2)
Track 13 accurately ripped (confidence 32) [1DE1B6BB] (AR v2)
Track 14 accurately ripped (confidence 32) [D3E7D0E3] (AR v2)
Track 15 accurately ripped (confidence 32) [94038417] (AR v2)
Track 16 accurately ripped (confidence 32) [66CD867B] (AR v2)
Track 17 accurately ripped (confidence 32) [279B3023] (AR v2)
Track 18 accurately ripped (confidence 32) [B3B7F379] (AR v2)
Track 19 accurately ripped (confidence 31) [7BA38FDD] (AR v2)
Track 20 accurately ripped (confidence 32) [CB670109] (AR v2)
Track 21 accurately ripped (confidence 32) [CA13E19A] (AR v2)
Track 22 accurately ripped (confidence 32) [63B50032] (AR v2)
Track 23 accurately ripped (confidence 32) [D9583C9A] (AR v2)
Track 24 accurately ripped (confidence 32) [91554A54] (AR v2)
Track 25 accurately ripped (confidence 32) [7FB1F42D] (AR v2)
Track 26 accurately ripped (confidence 31) [BC7A6244] (AR v2)
Track 27 accurately ripped (confidence 31) [273017B7] (AR v2)
Track 28 accurately ripped (confidence 30) [A87D825E] (AR v2)
Track 29 accurately ripped (confidence 32) [76B6FD44] (AR v2)
Track 30 accurately ripped (confidence 32) [DF7F019E] (AR v2)
Track 31 accurately ripped (confidence 32) [2B7C2B7A] (AR v2)

All tracks accurately ripped

End of status report

–– CUETools DB Plugin V2.1.6

[CTDB TOCID: MP94L4J4bEV0zSrR6URO_wc5piM-] found
Submit result: MP94L4J4bEV0zSrR6URO_wc5piM- has been confirmed
Track | CTDB Status
1 | (155/155) Accurately ripped
2 | (155/155) Accurately ripped
3 | (155/155) Accurately ripped
4 | (155/155) Accurately ripped
5 | (155/155) Accurately ripped
6 | (155/155) Accurately ripped
7 | (155/155) Accurately ripped
8 | (155/155) Accurately ripped
9 | (155/155) Accurately ripped
10 | (154/155) Accurately ripped
11 | (155/155) Accurately ripped
12 | (155/155) Accurately ripped
13 | (155/155) Accurately ripped
14 | (155/155) Accurately ripped
15 | (155/155) Accurately ripped
16 | (155/155) Accurately ripped
17 | (155/155) Accurately ripped
18 | (155/155) Accurately ripped
19 | (155/155) Accurately ripped
20 | (155/155) Accurately ripped
21 | (155/155) Accurately ripped
22 | (155/155) Accurately ripped
23 | (155/155) Accurately ripped
24 | (155/155) Accurately ripped
25 | (155/155) Accurately ripped
26 | (155/155) Accurately ripped
27 | (155/155) Accurately ripped
28 | (151/155) Accurately ripped
29 | (152/155) Accurately ripped
30 | (152/155) Accurately ripped
31 | (151/155) Accurately ripped


==== Log checksum 779323CB3DA19804B2DDE6AE960A21A2ED4A2C4042E88F95189D74B57E874C2A ====


Exact Audio Copy V1.3 from 2. September 2016

EAC extraction logfile from 15. April 2020, 1:00

Peter Pears, Dietrich Fischer-Dieskau, Elisabeth Schwarzkopf, Christa Ludwig, Nicolai Gedda, Walter Berry, John Carol Case, Ota / Bach - St. Matthew Passion (Disc 2)

Used drive : ATAPI iHAS124 F Adapter: 1 ID: 0

Read mode : Secure
Utilize accurate stream : Yes
Defeat audio cache : Yes
Make use of C2 pointers : No

Read offset correction : 6
Overread into Lead-In and Lead-Out : No
Fill up missing offset samples with silence : Yes
Delete leading and trailing silent blocks : No
Null samples used in CRC calculations : Yes
Used interface : Native Win32 interface for Win NT & 2000

Used output format : User Defined Encoder
Selected bitrate : 1024 kBit/s
Quality : High
Add ID3 tag : No
Command line compressor : C:\Program Files (x86)\Exact Audio Copy\FLAC\FLAC.EXE
Additional command line options : -6 -V -T "ARTIST=%artist%" -T "TITLE=%title%" -T "ALBUM=%albumtitle%" -T "DATE=%year%" -T "TRACKNUMBER=%tracknr%" -T "GENRE=%genre%" -T "COMMENT=%comment%" -T "BAND=%albuminterpret%" -T "ALBUMARTIST=%albuminterpret%" -T "COMPOSER=%composer%" %haslyrics%–tag-from-file=LYRICS="%lyricsfile%"%haslyrics% -T "DISCNUMBER=%cdnumber%" -T "TOTALDISCS=%totalcds%" -T "TOTALTRACKS=%numtracks%" %hascover%–picture="%coverfile%"%hascover% %source% -o %dest%


TOC of the extracted CD

Track | Start | Length | Start sector | End sector
––––––––––––––––––––––––––––-
1 | 0:00.00 | 3:06.56 | 0 | 14005
2 | 3:06.56 | 6:00.19 | 14006 | 41024
3 | 9:07.00 | 2:47.06 | 41025 | 53555
4 | 11:54.06 | 11:12.23 | 53556 | 103978
5 | 23:06.29 | 5:29.57 | 103979 | 128710
6 | 28:36.11 | 1:09.40 | 128711 | 133925
7 | 29:45.51 | 1:28.66 | 133926 | 140591
8 | 31:14.42 | 1:25.47 | 140592 | 147013
9 | 32:40.14 | 1:00.71 | 147014 | 151584
10 | 33:41.10 | 4:55.58 | 151585 | 173767
11 | 38:36.68 | 2:02.54 | 173768 | 182971
12 | 40:39.47 | 0:47.48 | 182972 | 186544
13 | 41:27.20 | 1:36.27 | 186545 | 193771
14 | 43:03.47 | 1:23.33 | 193772 | 200029
15 | 44:27.05 | 1:32.28 | 200030 | 206957
16 | 45:59.33 | 7:22.66 | 206958 | 240173
17 | 53:22.24 | 1:38.09 | 240174 | 247532
18 | 55:00.33 | 1:17.56 | 247533 | 253363
19 | 56:18.14 | 0:54.12 | 253364 | 257425
20 | 57:12.26 | 4:10.67 | 257426 | 276242
21 | 61:23.18 | 2:35.12 | 276243 | 287879
22 | 63:58.30 | 2:00.26 | 287880 | 296905
23 | 65:58.56 | 2:50.00 | 296906 | 309655
24 | 68:48.56 | 1:24.33 | 309656 | 315988
25 | 70:13.14 | 0:14.21 | 315989 | 317059
26 | 70:27.35 | 1:20.31 | 317060 | 323090
27 | 71:47.66 | 4:45.26 | 323091 | 344491


Range status and errors

Selected range

Filename C:\EACRip\Bach - St. Matthew Passion (Otto Klemperer) (2001 [1962])\CD2\Bach - St. Matthew Passion (Disc 2) - Otto Klemperer.wav

Peak level 82.0 %
Extraction speed 9.6 X
Range quality 99.9 %
Test CRC 16533F06
Copy CRC 16533F06
Copy OK

No errors occurred


AccurateRip summary

Track 1 accurately ripped (confidence 32) [57304F3B] (AR v2)
Track 2 accurately ripped (confidence 32) [29B9BBC4] (AR v2)
Track 3 accurately ripped (confidence 32) [66462373] (AR v2)
Track 4 accurately ripped (confidence 31) [D807D582] (AR v2)
Track 5 accurately ripped (confidence 32) [5249967C] (AR v2)
Track 6 accurately ripped (confidence 32) [616FBEBD] (AR v2)
Track 7 accurately ripped (confidence 32) [27AAA532] (AR v2)
Track 8 accurately ripped (confidence 31) [C783102D] (AR v2)
Track 9 accurately ripped (confidence 32) [855F0F9A] (AR v2)
Track 10 accurately ripped (confidence 32) [40A71FB9] (AR v2)
Track 11 accurately ripped (confidence 32) [66EB0941] (AR v2)
Track 12 accurately ripped (confidence 32) [8AB39A5C] (AR v2)
Track 13 accurately ripped (confidence 32) [5F568EEC] (AR v2)
Track 14 accurately ripped (confidence 31) [A30AB9D1] (AR v2)
Track 15 accurately ripped (confidence 31) [904ACCA7] (AR v2)
Track 16 accurately ripped (confidence 31) [6C18B61A] (AR v2)
Track 17 accurately ripped (confidence 32) [42497B9E] (AR v2)
Track 18 accurately ripped (confidence 30) [D73C9814] (AR v2)
Track 19 accurately ripped (confidence 32) [316A4649] (AR v2)
Track 20 accurately ripped (confidence 32) [FC9B2442] (AR v2)
Track 21 accurately ripped (confidence 31) [7F833F12] (AR v2)
Track 22 accurately ripped (confidence 32) [15CCF02A] (AR v2)
Track 23 accurately ripped (confidence 29) [1CF0546E] (AR v2)
Track 24 accurately ripped (confidence 30) [24380C59] (AR v2)
Track 25 accurately ripped (confidence 31) [BF94AEAE] (AR v2)
Track 26 accurately ripped (confidence 31) [4DD234FC] (AR v2)
Track 27 accurately ripped (confidence 29) [3574171C] (AR v2)

All tracks accurately ripped

End of status report

–– CUETools DB Plugin V2.1.6

[CTDB TOCID: 3jgGIzjgff8TO96rFeCNCtqA1qw-] found
Submit result: 3jgGIzjgff8TO96rFeCNCtqA1qw- has been confirmed
Track | CTDB Status
1 | (104/104) Accurately ripped
2 | (104/104) Accurately ripped
3 | (104/104) Accurately ripped
4 | (104/104) Accurately ripped
5 | (103/104) Accurately ripped
6 | (104/104) Accurately ripped
7 | (104/104) Accurately ripped
8 | (104/104) Accurately ripped
9 | (104/104) Accurately ripped
10 | (104/104) Accurately ripped
11 | (104/104) Accurately ripped
12 | (104/104) Accurately ripped
13 | (104/104) Accurately ripped
14 | (104/104) Accurately ripped
15 | (104/104) Accurately ripped
16 | (104/104) Accurately ripped
17 | (104/104) Accurately ripped
18 | (104/104) Accurately ripped
19 | (104/104) Accurately ripped
20 | (103/104) Accurately ripped
21 | (104/104) Accurately ripped
22 | (104/104) Accurately ripped
23 | (104/104) Accurately ripped
24 | (104/104) Accurately ripped
25 | (104/104) Accurately ripped
26 | (104/104) Accurately ripped
27 | (102/104) Accurately ripped


==== Log checksum C048B65D7F42F3DE5BC634B8C81D6969894AB755BE8B498B22B837BAC3423E19 ====


Exact Audio Copy V1.3 from 2. September 2016

EAC extraction logfile from 15. April 2020, 2:18

Peter Pears, Dietrich Fischer-Dieskau, Elisabeth Schwarzkopf, Christa Ludwig, Nicolai Gedda, Walter Berry, John Carol Case, Ota / Bach - St. Matthew Passion (Disc 3)

Used drive : ATAPI iHAS124 F Adapter: 1 ID: 0

Read mode : Secure
Utilize accurate stream : Yes
Defeat audio cache : Yes
Make use of C2 pointers : No

Read offset correction : 6
Overread into Lead-In and Lead-Out : No
Fill up missing offset samples with silence : Yes
Delete leading and trailing silent blocks : No
Null samples used in CRC calculations : Yes
Used interface : Native Win32 interface for Win NT & 2000

Used output format : User Defined Encoder
Selected bitrate : 1024 kBit/s
Quality : High
Add ID3 tag : No
Command line compressor : C:\Program Files (x86)\Exact Audio Copy\FLAC\FLAC.EXE
Additional command line options : -6 -V -T "ARTIST=%artist%" -T "TITLE=%title%" -T "ALBUM=%albumtitle%" -T "DATE=%year%" -T "TRACKNUMBER=%tracknr%" -T "GENRE=%genre%" -T "COMMENT=%comment%" -T "BAND=%albuminterpret%" -T "ALBUMARTIST=%albuminterpret%" -T "COMPOSER=%composer%" %haslyrics%–tag-from-file=LYRICS="%lyricsfile%"%haslyrics% -T "DISCNUMBER=%cdnumber%" -T "TOTALDISCS=%totalcds%" -T "TOTALTRACKS=%numtracks%" %hascover%–picture="%coverfile%"%hascover% %source% -o %dest%


TOC of the extracted CD

Track | Start | Length | Start sector | End sector
––––––––––––––––––––––––––––-
1 | 0:00.00 | 2:41.09 | 0 | 12083
2 | 2:41.09 | 1:25.53 | 12084 | 18511
3 | 4:06.62 | 9:41.42 | 18512 | 62128
4 | 13:48.29 | 1:15.41 | 62129 | 67794
5 | 15:03.70 | 3:16.27 | 67795 | 82521
6 | 18:20.22 | 1:08.48 | 82522 | 87669
7 | 19:28.70 | 0:44.33 | 87670 | 91002
8 | 20:13.28 | 6:38.57 | 91003 | 120909
9 | 26:52.10 | 4:24.59 | 120910 | 140768
10 | 31:16.69 | 0:17.68 | 140769 | 142111
11 | 31:34.62 | 1:35.51 | 142112 | 149287
12 | 33:10.38 | 4:38.54 | 149288 | 170191
13 | 37:49.17 | 2:52.43 | 170192 | 183134
14 | 40:41.60 | 2:21.13 | 183135 | 193722
15 | 43:02.73 | 3:05.24 | 193723 | 207621
16 | 46:08.22 | 2:36.16 | 207622 | 219337
17 | 48:44.38 | 10:19.70 | 219338 | 265832
18 | 59:04.33 | 3:22.59 | 265833 | 281041
19 | 62:27.17 | 2:21.09 | 281042 | 291625
20 | 64:48.26 | 8:06.13 | 291626 | 328088


Range status and errors

Selected range

Filename C:\EACRip\Bach - St. Matthew Passion (Otto Klemperer) (2001 [1962])\CD3\Bach - St. Matthew Passion (Disc 3) - Otto Klemperer.wav

Peak level 79.9 %
Extraction speed 9.2 X
Range quality 100.0 %
Test CRC C1DF2D8A
Copy CRC C1DF2D8A
Copy OK

No errors occurred


AccurateRip summary

Track 1 accurately ripped (confidence 32) [B6DCAF1D] (AR v2)
Track 2 accurately ripped (confidence 32) [5878CAF0] (AR v2)
Track 3 accurately ripped (confidence 31) [FF9086D6] (AR v2)
Track 4 accurately ripped (confidence 32) [66167527] (AR v2)
Track 5 accurately ripped (confidence 32) [28337298] (AR v2)
Track 6 accurately ripped (confidence 33) [994A25FD] (AR v2)
Track 7 accurately ripped (confidence 32) [F786DDED] (AR v2)
Track 8 accurately ripped (confidence 32) [4AA4ABE8] (AR v2)
Track 9 accurately ripped (confidence 32) [69151665] (AR v2)
Track 10 accurately ripped (confidence 32) [C86A798F] (AR v2)
Track 11 accurately ripped (confidence 32) [78C4F653] (AR v2)
Track 12 accurately ripped (confidence 32) [1248D2DD] (AR v2)
Track 13 accurately ripped (confidence 32) [6567D91D] (AR v2)
Track 14 accurately ripped (confidence 32) [C9156600] (AR v2)
Track 15 accurately ripped (confidence 32) [0C9BC168] (AR v2)
Track 16 accurately ripped (confidence 32) [0B209215] (AR v2)
Track 17 accurately ripped (confidence 31) [C4B54CAC] (AR v2)
Track 18 accurately ripped (confidence 31) [7DBBC003] (AR v2)
Track 19 accurately ripped (confidence 31) [E2AF6569] (AR v2)
Track 20 accurately ripped (confidence 29) [6930B885] (AR v2)

All tracks accurately ripped

End of status report

–– CUETools DB Plugin V2.1.6

[CTDB TOCID: gyFwqRJ2_kzaScl9gJJt7c9as_k-] found
Submit result: gyFwqRJ2_kzaScl9gJJt7c9as_k- has been confirmed
Track | CTDB Status
1 | (152/152) Accurately ripped
2 | (152/152) Accurately ripped
3 | (152/152) Accurately ripped
4 | (151/152) Accurately ripped
5 | (152/152) Accurately ripped
6 | (152/152) Accurately ripped
7 | (152/152) Accurately ripped
8 | (152/152) Accurately ripped
9 | (152/152) Accurately ripped
10 | (152/152) Accurately ripped
11 | (152/152) Accurately ripped
12 | (152/152) Accurately ripped
13 | (152/152) Accurately ripped
14 | (151/152) Accurately ripped
15 | (152/152) Accurately ripped
16 | (152/152) Accurately ripped
17 | (151/152) Accurately ripped
18 | (152/152) Accurately ripped
19 | (152/152) Accurately ripped
20 | (106/152) Accurately ripped, or (43/152) differs in 89 samples @06:48:72,06:49:60,06:55:72-06:55:73,06:58:57


==== Log checksum E21A4F0FF266924AB930021849CD7A2BAD28F5B49DD1128DBF6CB6A99728DFCC ====

Otto Klemperer, Philharmonia Orchestra and Chorus - Bach: Matthäus-Passion (2001)

Thanks to the original releaser