Subcategories

Outloud - Let's Get Serious (2014) [Japanese Ed.]

Posted By: Andi_Deris
Outloud - Let's Get Serious (2014) [Japanese Ed.]

Outloud - Let's Get Serious (2014) [Japanese Ed.]
EAC Rip | FLAC: Image+Cue+Log | MP3 CBR 320 kbps | Scans
471 Mb | 166 Mb | 95 Mb | Time: 57:57
Rubicon Music | DAKRBNCD-1162
Melodic Hard Rock, Heavy Metal

Outloud - the Greek kings of melodic hard rock featuring Bob Katsionis (FIREWIND) and American singer Chandler Mogel, announce the release of their long-awaited third album, Let’s Get Serious, a blaze of melodic bliss once again mixed and mastered by the great Tommy Hansen and releasing this summer on the AOR Heaven label.

The album features 11 brand new songs, plus a cover of OMD’s 'Enola Gay', Outloud-style. Also featured is very special guest George Kollias (NILE) who played all the drums on the album, and a special appearance by guitar god Mike Orlando (ADRENALINE MOB) on probably what could be called the heaviest Outloud track to date, 'Toy Soldiers'.

Outloud - Let's Get Serious (2014) [Japanese Ed.]




Track Listing

01. Another Kind Of Angel (5:09)
02. I Was So Blind (4:20)
03. One More Time (4:14)
04. Like A Dream (4:14)
05. All In Vain (3:43)
06. Let's Get Serious (5:16)
07. Bury The Knife (6:05)
08. A While To Go (4:30)
09. Toy Soldiers (3:22)
10. It Really Doesn't Matter (3:56)
11. Death Rock! (5:25)
12. Enola Gay (OMD cover) (2:58)

Bonus track for Japan
13. Another Kind Of Angel (Demo) (4:45)

Produced by Bob Katsionis

The Band

Chandler Mogel (Talon, Until Destiny, Cities, NYC Outlaws, Legion (US)) - vocals
Bob Katsionis (Nightfall (Grc), Imaginery, Zion (Grc), Karmic Link (Guest), Overlord's Perpetual, Star Queen, Skyward (Grc), Septicflesh, Fatal Morgana, Mirage (Grc), Firewind, Encomium (Grc), Casus Belli (Grc), Francesco Fareri, Mike Dimareli Artical, Ioannis Anastassakis) - lead guitars & keyboards
• Sverd - bass & screams
• Jim Scordilis - guitars
Kostas Milonas - drums

*****
• George Kollias (Nile) - all drums on album
• Mike Orlando (Adrenaline Mob) - guitar solo on 'Toy Soldiers'

Exact Audio Copy V1.0 beta 3 from 29. August 2011

EAC extraction logfile from 13. June 2014, 17:12

Outloud / Let's Get Serious

Used drive : SlimtypeDVD A DS8A5SH Adapter: 0 ID: 1

Read mode : Secure
Utilize accurate stream : Yes
Defeat audio cache : Yes
Make use of C2 pointers : No

Read offset correction : 6
Overread into Lead-In and Lead-Out : No
Fill up missing offset samples with silence : Yes
Delete leading and trailing silent blocks : No
Null samples used in CRC calculations : Yes
Used interface : Native Win32 interface for Win NT & 2000

Used output format : User Defined Encoder
Selected bitrate : 320 kBit/s
Quality : High
Add ID3 tag : No
Command line compressor : C:\Program Files (x86)\Exact Audio Copy\Flac\flac.exe
Additional command line options : -V -8 -T "Date=%year%" -T "Genre=%genre%" %source%


TOC of the extracted CD

Track | Start | Length | Start sector | End sector
––––––––––––––––––––––––––––-
1 | 0:00.00 | 5:09.17 | 0 | 23191
2 | 5:09.17 | 4:20.58 | 23192 | 42749
3 | 9:30.00 | 4:14.14 | 42750 | 61813
4 | 13:44.14 | 4:14.10 | 61814 | 80873
5 | 17:58.24 | 3:43.65 | 80874 | 97663
6 | 21:42.14 | 5:16.30 | 97664 | 121393
7 | 26:58.44 | 6:05.00 | 121394 | 148768
8 | 33:03.44 | 4:30.45 | 148769 | 169063
9 | 37:34.14 | 3:22.02 | 169064 | 184215
10 | 40:56.16 | 3:56.63 | 184216 | 201978
11 | 44:53.04 | 5:25.23 | 201979 | 226376
12 | 50:18.27 | 2:58.36 | 226377 | 239762
13 | 53:16.63 | 4:45.65 | 239763 | 261202


Range status and errors

Selected range

Filename D:\My Music\Outloud - 2014 Let's Get Serious\Outloud - Let's Get Serious.wav

Peak level 100.0 %
Extraction speed 4.5 X
Range quality 99.9 %
Test CRC 99FB28A9
Copy CRC 99FB28A9
Copy OK

No errors occurred


AccurateRip summary

Track 1 not present in database
Track 2 not present in database
Track 3 not present in database
Track 4 not present in database
Track 5 not present in database
Track 6 not present in database
Track 7 not present in database
Track 8 not present in database
Track 9 not present in database
Track 10 not present in database
Track 11 not present in database
Track 12 not present in database
Track 13 not present in database

None of the tracks are present in the AccurateRip database

End of status report

==== Log checksum 28D00094C470C833C762F4EF77B6169941ACC6E183F72F10111EE9A89714F77C ====


Many thanks to the original uploader: kolushew

SEE also:
Bob Katsionis 2002 Turn Of My Century [Japanese Ed. 2004]
Bob Katsionis 2004 Imaginary Force [Japanese Ed.]
Bob Katsionis 2012 Rest In Keys

Firewind 2017 Immortals [Japanese Ed.]



Password: pass