Tags
Language
Tags

Overground Collective - Super Mário (2019)

Posted By: gribovar
Overground Collective - Super Mário (2019)

Overground Collective - Super Mario (2019)
EAC Rip | FLAC (image+.cue+log) - 178 MB | MP3 CBR 320 kbps (LAME 3.93) - 76 MB | Covers - 36 MB
Genre: Jazz, Big Band | RAR 3% Rec. | Label: Babel Label (BDV19155)

The OverGround Collective is an 18-piece band put together by the Portuguese composer Paulo Dias Duarte. The project is a result of Paulo’s obsessive research on improvisation and its relation with pre-composed material. After shadowing many improvisers in the London scene, Paulo has put together a group of players, with very distinctive improvisational languages and techniques, in a project where he uses their different approaches to improvisation as compositional tools, creating a very eclectic musical landscape where the improviser itself is a part of the score.
Tracklist:
01. Intro
02. Part 1
03. Part 2
04. Part 3
05. Part 4
06. Part 5
07. Part 6
08. Part 7

Total time: 32:32

Exact Audio Copy V1.3 from 2. September 2016

Отчёт EAC об извлечении, выполненном 21. ноября 2019, 15:44

Overground Collective / Super Mario

Дисковод: HL-DT-STDVDRAM GT70N Adapter: 1 ID: 0

Режим чтения : Достоверность
Использование точного потока : Да
Отключение кэша аудио : Да
Использование указателей C2 : Нет

Коррекция смещения при чтении : 103
Способность читать области Lead-in и Lead-out : Нет
Заполнение пропущенных сэмплов тишиной : Да
Удаление блоков с тишиной в начале и конце : Нет
При вычислениях CRC использовались нулевые сэмплы : Да
Интерфейс : Встроенный Win32-интерфейс для Win NT/2000

Выходной формат : Пользовательский кодировщик
Выбранный битрейт : 1024 kBit/s
Качество : Высокий
Добавление ID3-тега : Нет
Утилита сжатия : C:\Program Files (x86)\Exact Audio Copy\Flac\flac.exe
Дополнительные параметры : -V -8 -T "Date=%year%" -T "Genre=%genre%" %source%


TOC извлечённого CD

Трек | Старт | Длительность | Начальный сектор | Конечный сектор
––––––––––––––––––––––––––––––––––-
1 | 0:00.00 | 1:29.38 | 0 | 6712
2 | 1:29.38 | 11:32.44 | 6713 | 58656
3 | 13:02.07 | 4:12.65 | 58657 | 77621
4 | 17:14.72 | 2:41.47 | 77622 | 89743
5 | 19:56.44 | 3:29.72 | 89744 | 105490
6 | 23:26.41 | 3:04.47 | 105491 | 119337
7 | 26:31.13 | 3:20.38 | 119338 | 134375
8 | 29:51.51 | 2:40.41 | 134376 | 146416


Характеристики диапазона извлечения и сообщения об ошибках

Выбранный диапазон

Имя файла C:\Users\Oleg1\Desktop\Overground Collective - Super Mario.wav

Пиковый уровень 98.1 %
Скорость извлечения 3.8 X
Качество диапазона 100.0 %
CRC теста E24FCB51
CRC копии E24FCB51
Копирование… OK

Ошибок не произошло


AccurateRip: сводка

Трек 1 отсутствует в базе данных
Трек 2 отсутствует в базе данных
Трек 3 отсутствует в базе данных
Трек 4 отсутствует в базе данных
Трек 5 отсутствует в базе данных
Трек 6 отсутствует в базе данных
Трек 7 отсутствует в базе данных
Трек 8 отсутствует в базе данных

Ни одного трека нет в базе AccurateRip

Конец отчёта

==== Контрольная сумма отчёта 181B1627231F6A97DDDA03BFE44FF37A52B0D2FB997137879F55CD671572D6E0 ====

[CUETools log; Date: 21.11.2019 19:05:26; Version: 2.1.4]
[CTDB TOCID: ucJQ7qn9LW30mF_WZmFrNL5Bb9c-] disk not present in database.
[AccurateRip ID: 000b4436-004963cf-6f07a008] disk not present in database.

Track Peak [ CRC32 ] [W/O NULL] [ LOG ]
– 98,1 [E24FCB51] [C1425DC6] CRC32
01 78,6 [F2B6466D] [033E757D]
02 98,1 [A025698F] [7A7D46AA]
03 98,1 [7DBF5A8D] [A461070B]
04 69,4 [F2646F7D] [8ADAEFA6]
05 96,8 [EEED5730] [B4E2D902]
06 96,6 [51E494E4] [D3037D88]
07 80,0 [864CAA16] [E7A6348D]
08 97,5 [B3FA3CFC] [F8D6CB6A]

Thanks to verbiya