Subcategories
Tags
Language
Tags

VA - Peanut Butter Wolf's Jukebox 45's (2002) {Stones Throw}

Posted By: TestTickles
VA - Peanut Butter Wolf's Jukebox 45's (2002) {Stones Throw}

VA - Peanut Butter Wolf's Jukebox 45's (2002) {Stones Throw}
EAC Rip | FLAC with CUE and LOG | scans | 328 mb
MP3 CBR 320 kbps | RAR | 121 mb
Genre: hip-hop, rap, turntablism, funk, soul, R&B, indie pop

Peanut Butter Wolf's Jukebox 45's is a 2002 compilation album by Peanut Butter Wolf consisting of the 7" 45rpm singles he released on his record label, Stones Throw. It's an eclectic mixture of hip-hop, funk, soul and things that might arguably be called indie pop.

VA - Peanut Butter Wolf's Jukebox 45's (2002) {Stones Throw}

01. Beat Conductor - Chops & Thangs
02. Quasimoto - Microphone Mathematics (Remix)
03. Dudley Perkins - Flowers
04. Ernie & The Top Notes featuring Raymond Winnifield - Things Could Be Better
05. Yesterdays New Quintet - Harlem River Drive Interlude
06. Yesterdays New Quintet - I Am Singing
07. Capt. Funkaho - My 2600
08. Beat Conductor - Breaks Of Meditate
09. Madlib Invazion featuring Medaphoar & Oh No - The Ox (Fantastic Four)
10. Stark Reality - Rocket Ship
11. Medaphoar - Place Your Bet
12. The Highlighters Band - Poppin' Popcorn
13. Breakestra - Getcho Soul Togetha (Part 2)
14. Charizma - Devotion '92
15. Beat Conductor - Conducted Rhythms
16. A-Trak - Enter Ralph Wiggum
17. Fabulous Souls - Take Me
18. L.A. Carnival - Color
19. Beat Conductor - Lost Lust
20. Yesterdays New Quintet - Mystic Brew Interlude
21. Yesterdays New Quintet - Knucklehead
22. Lootpack - On Point

Exact Audio Copy V1.0 beta 6 from 9. April 2015

EAC extraction logfile from 18. July 2020, 13:15

Various Artists / Peanut Butter Wolf's Jukebox 45's

Used drive : TSSTcorpDVD+-RW TS-L633C Adapter: 1 ID: 0

Read mode : Secure
Utilize accurate stream : Yes
Defeat audio cache : Yes
Make use of C2 pointers : No

Read offset correction : 6
Overread into Lead-In and Lead-Out : No
Fill up missing offset samples with silence : Yes
Delete leading and trailing silent blocks : No
Null samples used in CRC calculations : Yes
Used interface : Native Win32 interface for Win NT & 2000
Gap handling : Appended to previous track

Used output format : Internal WAV Routines
Sample format : 44.100 Hz; 16 Bit; Stereo


TOC of the extracted CD

Track | Start | Length | Start sector | End sector
––––––––––––––––––––––––––––-
1 | 0:00.00 | 1:00.60 | 0 | 4559
2 | 1:00.60 | 2:25.45 | 4560 | 15479
3 | 3:26.30 | 2:29.50 | 15480 | 26704
4 | 5:56.05 | 3:03.55 | 26705 | 40484
5 | 8:59.60 | 0:30.62 | 40485 | 42796
6 | 9:30.47 | 3:16.40 | 42797 | 57536
7 | 12:47.12 | 2:53.03 | 57537 | 70514
8 | 15:40.15 | 0:26.65 | 70515 | 72529
9 | 16:07.05 | 2:36.32 | 72530 | 84261
10 | 18:43.37 | 4:06.58 | 84262 | 102769
11 | 22:50.20 | 2:40.10 | 102770 | 114779
12 | 25:30.30 | 3:15.32 | 114780 | 129436
13 | 28:45.62 | 4:14.15 | 129437 | 148501
14 | 33:00.02 | 4:01.58 | 148502 | 166634
15 | 37:01.60 | 1:51.00 | 166635 | 174959
16 | 38:52.60 | 2:49.15 | 174960 | 187649
17 | 41:42.00 | 2:41.05 | 187650 | 199729
18 | 44:23.05 | 2:29.65 | 199730 | 210969
19 | 46:52.70 | 1:21.52 | 210970 | 217096
20 | 48:14.47 | 0:44.50 | 217097 | 220446
21 | 48:59.22 | 2:00.40 | 220447 | 229486
22 | 50:59.62 | 3:09.18 | 229487 | 243679


Track 1

Filename C:\My Documents\My FLAC\VA - Peanut Butter Wolf's Jukebox 45's (2002) [FLAC] {Stones Throw}\01 - Beat Conductor - Chops & Thangs.wav

Pre-gap length 0:00:02.00

Peak level 100.0 %
Extraction speed 1.6 X
Track quality 100.0 %
Test CRC F67DEF89
Copy CRC F67DEF89
Cannot be verified as accurate (confidence 13) [BED4C701], AccurateRip returned [C1CF55D5] (AR v2)
Copy OK

Track 2

Filename C:\My Documents\My FLAC\VA - Peanut Butter Wolf's Jukebox 45's (2002) [FLAC] {Stones Throw}\02 - Quasimoto - Microphone Mathematics (Remix).wav

Peak level 96.6 %
Extraction speed 2.6 X
Track quality 100.0 %
Test CRC 4824CEB8
Copy CRC 4824CEB8
Cannot be verified as accurate (confidence 14) [FAC90358], AccurateRip returned [14726C4C] (AR v2)
Copy OK

Track 3

Filename C:\My Documents\My FLAC\VA - Peanut Butter Wolf's Jukebox 45's (2002) [FLAC] {Stones Throw}\03 - Dudley Perkins - Flowers.wav

Peak level 98.8 %
Extraction speed 2.5 X
Track quality 100.0 %
Test CRC 5B066F72
Copy CRC 5B066F72
Cannot be verified as accurate (confidence 14) [FDC40B2C], AccurateRip returned [A045D5EB] (AR v2)
Copy OK

Track 4

Filename C:\My Documents\My FLAC\VA - Peanut Butter Wolf's Jukebox 45's (2002) [FLAC] {Stones Throw}\04 - Ernie & The Top Notes featuring Raymond Winnifield - Things Could Be Better.wav

Peak level 98.8 %
Extraction speed 2.7 X
Track quality 100.0 %
Test CRC 44BF2A3D
Copy CRC 44BF2A3D
Cannot be verified as accurate (confidence 14) [12A3C007], AccurateRip returned [13603021] (AR v2)
Copy OK

Track 5

Filename C:\My Documents\My FLAC\VA - Peanut Butter Wolf's Jukebox 45's (2002) [FLAC] {Stones Throw}\05 - Yesterdays New Quintet - Harlem River Drive Interlude.wav

Peak level 98.8 %
Extraction speed 1.6 X
Track quality 100.0 %
Test CRC D23563E9
Copy CRC D23563E9
Cannot be verified as accurate (confidence 14) [D4C71A55], AccurateRip returned [51AC7242] (AR v2)
Copy OK

Track 6

Filename C:\My Documents\My FLAC\VA - Peanut Butter Wolf's Jukebox 45's (2002) [FLAC] {Stones Throw}\06 - Yesterdays New Quintet - I Am Singing.wav

Peak level 98.8 %
Extraction speed 2.5 X
Track quality 99.9 %
Test CRC A9A502C1
Copy CRC A9A502C1
Cannot be verified as accurate (confidence 14) [058BD718], AccurateRip returned [4BB81C06] (AR v2)
Copy OK

Track 7

Filename C:\My Documents\My FLAC\VA - Peanut Butter Wolf's Jukebox 45's (2002) [FLAC] {Stones Throw}\07 - Capt. Funkaho - My 2600.wav

Peak level 98.8 %
Extraction speed 2.7 X
Track quality 100.0 %
Test CRC EC72CAED
Copy CRC EC72CAED
Cannot be verified as accurate (confidence 14) [AED1E4CA], AccurateRip returned [585CD906] (AR v2)
Copy OK

Track 8

Filename C:\My Documents\My FLAC\VA - Peanut Butter Wolf's Jukebox 45's (2002) [FLAC] {Stones Throw}\08 - Beat Conductor - Breaks Of Meditate.wav

Peak level 78.5 %
Extraction speed 0.7 X
Track quality 99.6 %
Test CRC 7600EA0B
Copy CRC 7600EA0B
Cannot be verified as accurate (confidence 14) [2ED496C9], AccurateRip returned [C39F8104] (AR v2)
Copy OK

Track 9

Filename C:\My Documents\My FLAC\VA - Peanut Butter Wolf's Jukebox 45's (2002) [FLAC] {Stones Throw}\09 - Madlib Invazion featuring Medaphoar & Oh No - The Ox (Fantastic Four).wav

Peak level 94.4 %
Extraction speed 3.2 X
Track quality 100.0 %
Test CRC CC75C575
Copy CRC CC75C575
Cannot be verified as accurate (confidence 14) [A4EF779D], AccurateRip returned [E763AF01] (AR v2)
Copy OK

Track 10

Filename C:\My Documents\My FLAC\VA - Peanut Butter Wolf's Jukebox 45's (2002) [FLAC] {Stones Throw}\10 - Stark Reality - Rocket Ship.wav

Peak level 98.8 %
Extraction speed 3.2 X
Track quality 100.0 %
Test CRC EAD691CC
Copy CRC EAD691CC
Cannot be verified as accurate (confidence 14) [B7E45B86], AccurateRip returned [F7B43679] (AR v2)
Copy OK

Track 11

Filename C:\My Documents\My FLAC\VA - Peanut Butter Wolf's Jukebox 45's (2002) [FLAC] {Stones Throw}\11 - Medaphoar - Place Your Bet.wav

Peak level 92.2 %
Extraction speed 3.2 X
Track quality 100.0 %
Test CRC 09D3BB13
Copy CRC 09D3BB13
Cannot be verified as accurate (confidence 14) [10BFA300], AccurateRip returned [E0D125E1] (AR v2)
Copy OK

Track 12

Filename C:\My Documents\My FLAC\VA - Peanut Butter Wolf's Jukebox 45's (2002) [FLAC] {Stones Throw}\12 - The Highlighters Band - Poppin' Popcorn.wav

Peak level 98.8 %
Extraction speed 3.7 X
Track quality 100.0 %
Test CRC DA9EDCED
Copy CRC DA9EDCED
Cannot be verified as accurate (confidence 14) [F390F5C7], AccurateRip returned [A9859E1D] (AR v2)
Copy OK

Track 13

Filename C:\My Documents\My FLAC\VA - Peanut Butter Wolf's Jukebox 45's (2002) [FLAC] {Stones Throw}\13 - Breakestra - Getcho Soul Togetha (Part 2).wav

Peak level 100.0 %
Extraction speed 3.2 X
Track quality 100.0 %
Test CRC 6A58892C
Copy CRC 6A58892C
Cannot be verified as accurate (confidence 14) [3FB718B6], AccurateRip returned [521E9C2C] (AR v2)
Copy OK

Track 14

Filename C:\My Documents\My FLAC\VA - Peanut Butter Wolf's Jukebox 45's (2002) [FLAC] {Stones Throw}\14 - Charizma - Devotion '92.wav

Peak level 98.8 %
Extraction speed 4.0 X
Track quality 100.0 %
Test CRC 18263F1D
Copy CRC 18263F1D
Cannot be verified as accurate (confidence 14) [A98E1BE7], AccurateRip returned [6C63A24D] (AR v2)
Copy OK

Track 15

Filename C:\My Documents\My FLAC\VA - Peanut Butter Wolf's Jukebox 45's (2002) [FLAC] {Stones Throw}\15 - Beat Conductor - Conducted Rhythms.wav

Peak level 95.8 %
Extraction speed 3.4 X
Track quality 100.0 %
Test CRC C5BA33B0
Copy CRC C5BA33B0
Cannot be verified as accurate (confidence 14) [15D8D73D], AccurateRip returned [CAE9D676] (AR v2)
Copy OK

Track 16

Filename C:\My Documents\My FLAC\VA - Peanut Butter Wolf's Jukebox 45's (2002) [FLAC] {Stones Throw}\16 - A-Trak - Enter Ralph Wiggum.wav

Peak level 98.8 %
Extraction speed 4.0 X
Track quality 100.0 %
Test CRC 591CAA6B
Copy CRC 591CAA6B
Cannot be verified as accurate (confidence 14) [EDED7D19], AccurateRip returned [D34213F2] (AR v2)
Copy OK

Track 17

Filename C:\My Documents\My FLAC\VA - Peanut Butter Wolf's Jukebox 45's (2002) [FLAC] {Stones Throw}\17 - Fabulous Souls - Take Me.wav

Peak level 100.0 %
Extraction speed 3.5 X
Track quality 100.0 %
Test CRC A3B07A7F
Copy CRC A3B07A7F
Cannot be verified as accurate (confidence 14) [22E9A067], AccurateRip returned [0EE38990] (AR v2)
Copy OK

Track 18

Filename C:\My Documents\My FLAC\VA - Peanut Butter Wolf's Jukebox 45's (2002) [FLAC] {Stones Throw}\18 - L.A. Carnival - Color.wav

Peak level 98.8 %
Extraction speed 3.9 X
Track quality 100.0 %
Test CRC 52E1ADC3
Copy CRC 52E1ADC3
Cannot be verified as accurate (confidence 14) [EC4459F1], AccurateRip returned [BAC45A4E] (AR v2)
Copy OK

Track 19

Filename C:\My Documents\My FLAC\VA - Peanut Butter Wolf's Jukebox 45's (2002) [FLAC] {Stones Throw}\19 - Beat Conductor - Lost Lust.wav

Peak level 74.2 %
Extraction speed 0.2 X
Track quality 100.0 %
Test CRC CDE90911
Copy CRC CDE90911
Cannot be verified as accurate (confidence 14) [4D5C0E97], AccurateRip returned [46C1B58D] (AR v2)
Copy OK

Track 20

Filename C:\My Documents\My FLAC\VA - Peanut Butter Wolf's Jukebox 45's (2002) [FLAC] {Stones Throw}\20 - Yesterdays New Quintet - Mystic Brew Interlude.wav

Peak level 98.8 %
Extraction speed 3.1 X
Track quality 100.0 %
Test CRC 4F9AAB23
Copy CRC 4F9AAB23
Cannot be verified as accurate (confidence 14) [5C18C6BE], AccurateRip returned [A70F8FE7] (AR v2)
Copy OK

Track 21

Filename C:\My Documents\My FLAC\VA - Peanut Butter Wolf's Jukebox 45's (2002) [FLAC] {Stones Throw}\21 - Yesterdays New Quintet - Knucklehead.wav

Peak level 98.8 %
Extraction speed 2.9 X
Track quality 100.0 %
Test CRC EC16A729
Copy CRC EC16A729
Cannot be verified as accurate (confidence 14) [736FCD8E], AccurateRip returned [49026AFE] (AR v2)
Copy OK

Track 22

Filename C:\My Documents\My FLAC\VA - Peanut Butter Wolf's Jukebox 45's (2002) [FLAC] {Stones Throw}\22 - Lootpack - On Point.wav

Peak level 98.8 %
Extraction speed 3.6 X
Track quality 99.9 %
Test CRC 8A399617
Copy CRC 8A399617
Cannot be verified as accurate (confidence 14) [3A9BB57C], AccurateRip returned [5093AB09] (AR v2)
Copy OK


No tracks could be verified as accurate
You may have a different pressing from the one(s) in the database

No errors occurred

End of status report

–– CUETools DB Plugin V2.1.6

[CTDB TOCID: 3A8rYgBi3BKMLQI2cxKk.aiq4N0-] found
Submit result: 3A8rYgBi3BKMLQI2cxKk.aiq4N0- has been submitted
Track | CTDB Status
1 | (28/30) Accurately ripped
2 | (28/30) Accurately ripped
3 | (29/30) Accurately ripped
4 | (28/30) Accurately ripped
5 | (29/30) Accurately ripped
6 | (29/30) Accurately ripped
7 | (29/30) Accurately ripped
8 | (29/30) Accurately ripped
9 | (28/30) Accurately ripped
10 | (28/30) Accurately ripped
11 | (29/30) Accurately ripped
12 | (28/30) Accurately ripped
13 | (29/30) Accurately ripped
14 | (27/30) Accurately ripped
15 | (29/30) Accurately ripped
16 | ( 0/30) No match
17 | (28/30) Accurately ripped
18 | (29/30) Accurately ripped
19 | (28/30) Accurately ripped
20 | (29/30) Accurately ripped
21 | ( 0/30) No match
22 | (29/30) Accurately ripped


==== Log checksum 4D9746EFC3871CDD27626DAAC1403841B26363706A28226EE198A33A367ABB3E ====


VA - Peanut Butter Wolf's Jukebox 45's (2002) {Stones Throw}