Tags
Language
Tags

Paul Anka - Best Of... (2000) {Falcon Neue Medien}

Posted By: TestTickles
Paul Anka - Best Of... (2000) {Falcon Neue Medien}

Paul Anka - Best Of… (2000) {Falcon Neue Medien}
EAC Rip | FLAC with CUE and LOG | scans | 276 mb
MP3 CBR 320 kbps | RAR | 94 mb
Genre: pop

Best Of Paul Anka is a 2000 compilation CD by American pop singer Paul Anka. This was released in Germany by Falcon Neue Medien and the reason this CD exists is because Paul Anka is the best.

Paul Anka - Best Of... (2000) {Falcon Neue Medien}

01. Lonely Boy
02. Put Your Head On My Shoulder
03. Diana
04. Dance On Little Girl
05. Tonight My Love Tonight
06. You Are My Destiny
07. Puppy Love
08. Ogni Volta
09. My Home Town
10. Love Me Warm And Tender
11. I Love You Baby
12. Eso Beso
13. A Steel Guitar And A Glass Of Wine
14. Crazy Love
15. I Love You The Same Old Way
16. Summer's Gone
17. Cinderella
18. Adam And Eve

Exact Audio Copy V0.99 prebeta 4 from 23. January 2008

EAC extraction logfile from 10. August 2008, 6:00

Paul Anka / Best Of Paul Anka

Used drive : TSSTcorpDVD+-RW TS-L532B Adapter: 1 ID: 0

Read mode : Secure
Utilize accurate stream : Yes
Defeat audio cache : Yes
Make use of C2 pointers : No

Combined read/write offset correction : 0
Overread into Lead-In and Lead-Out : No
Fill up missing offset samples with silence : Yes
Delete leading and trailing silent blocks : No
Null samples used in CRC calculations : Yes
Normalize to : 98 %
Used interface : Installed external ASPI interface
Gap handling : Appended to previous track

Used output format : Benutzerdefinierter Komprimierer
Selected bitrate : 320 kBit/s
Quality : High
Add ID3 tag : No
Command line compressor : C:\Programme\Exact Audio Copy\Flac\flac.exe
Additional command line options : -5 -T "Artist=%a" -T "Title=%t" -T "Album=%g" -T "Date=%y" -T "Tracknumber=%n" -T "Genre=%m" %s -o %d


TOC of the extracted CD

Track | Start | Length | Start sector | End sector
––––––––––––––––––––––––––––-
1 | 0:00.00 | 2:31.56 | 0 | 11380
2 | 2:31.56 | 2:38.19 | 11381 | 23249
3 | 5:10.00 | 2:24.40 | 23250 | 34089
4 | 7:34.40 | 2:18.73 | 34090 | 44512
5 | 9:53.38 | 2:09.34 | 44513 | 54221
6 | 12:02.72 | 2:43.36 | 54222 | 66482
7 | 14:46.33 | 2:39.31 | 66483 | 78438
8 | 17:25.64 | 2:20.69 | 78439 | 89007
9 | 19:46.58 | 2:08.13 | 89008 | 98620
10 | 21:54.71 | 2:14.56 | 98621 | 108726
11 | 24:09.52 | 2:09.28 | 108727 | 118429
12 | 26:19.05 | 2:16.43 | 118430 | 128672
13 | 28:35.48 | 2:10.28 | 128673 | 138450
14 | 30:46.01 | 2:24.24 | 138451 | 149274
15 | 33:10.25 | 2:30.20 | 149275 | 160544
16 | 35:40.45 | 2:44.25 | 160545 | 172869
17 | 38:24.70 | 2:04.39 | 172870 | 182208
18 | 40:29.34 | 2:25.38 | 182209 | 193121


Track 1

Filename C:\cuntfist\FLAC\Paul Anka - Best Of… (2000) [FLAC] {Falcon Neue Medien}\01 - Lonely Boy.wav

Pre-gap length 0:00:02.00

Peak level 100.0 %
Track quality 99.9 %
Test CRC 22E7211F
Copy CRC 22E7211F
Copy OK

Track 2

Filename C:\cuntfist\FLAC\Paul Anka - Best Of… (2000) [FLAC] {Falcon Neue Medien}\02 - Put Your Head On My Shoulder.wav

Pre-gap length 0:00:02.00

Peak level 100.0 %
Track quality 100.0 %
Test CRC 72BECB3E
Copy CRC 72BECB3E
Copy OK

Track 3

Filename C:\cuntfist\FLAC\Paul Anka - Best Of… (2000) [FLAC] {Falcon Neue Medien}\03 - Diana.wav

Pre-gap length 0:00:02.00

Peak level 100.0 %
Track quality 100.0 %
Test CRC 2907C686
Copy CRC 2907C686
Copy OK

Track 4

Filename C:\cuntfist\FLAC\Paul Anka - Best Of… (2000) [FLAC] {Falcon Neue Medien}\04 - Dance On Little Girl.wav

Pre-gap length 0:00:02.00

Peak level 100.0 %
Track quality 100.0 %
Test CRC 39A9B3B8
Copy CRC 39A9B3B8
Copy OK

Track 5

Filename C:\cuntfist\FLAC\Paul Anka - Best Of… (2000) [FLAC] {Falcon Neue Medien}\05 - Tonight My Love Tonight.wav

Pre-gap length 0:00:02.00

Peak level 100.0 %
Track quality 100.0 %
Test CRC 71FE24E6
Copy CRC 71FE24E6
Copy OK

Track 6

Filename C:\cuntfist\FLAC\Paul Anka - Best Of… (2000) [FLAC] {Falcon Neue Medien}\06 - You Are My Destiny.wav

Pre-gap length 0:00:02.00

Peak level 100.0 %
Track quality 100.0 %
Test CRC 4CB704B2
Copy CRC 4CB704B2
Copy OK

Track 7

Filename C:\cuntfist\FLAC\Paul Anka - Best Of… (2000) [FLAC] {Falcon Neue Medien}\07 - Puppy Love.wav

Pre-gap length 0:00:02.00

Peak level 100.0 %
Track quality 99.9 %
Test CRC 1407E3C1
Copy CRC 1407E3C1
Copy OK

Track 8

Filename C:\cuntfist\FLAC\Paul Anka - Best Of… (2000) [FLAC] {Falcon Neue Medien}\08 - Ogni Volta.wav

Pre-gap length 0:00:02.00

Peak level 100.0 %
Track quality 100.0 %
Test CRC B60EAD9A
Copy CRC B60EAD9A
Copy OK

Track 9

Filename C:\cuntfist\FLAC\Paul Anka - Best Of… (2000) [FLAC] {Falcon Neue Medien}\09 - My Home Town.wav

Pre-gap length 0:00:02.00

Peak level 100.0 %
Track quality 99.9 %
Test CRC 1A557032
Copy CRC 1A557032
Copy OK

Track 10

Filename C:\cuntfist\FLAC\Paul Anka - Best Of… (2000) [FLAC] {Falcon Neue Medien}\10 - Love Me Warm And Tender.wav

Pre-gap length 0:00:02.00

Peak level 100.0 %
Track quality 100.0 %
Test CRC 6DC2F0AB
Copy CRC 6DC2F0AB
Copy OK

Track 11

Filename C:\cuntfist\FLAC\Paul Anka - Best Of… (2000) [FLAC] {Falcon Neue Medien}\11 - I Love You Baby.wav

Pre-gap length 0:00:02.00

Peak level 100.0 %
Track quality 100.0 %
Test CRC C98832A9
Copy CRC C98832A9
Copy OK

Track 12

Filename C:\cuntfist\FLAC\Paul Anka - Best Of… (2000) [FLAC] {Falcon Neue Medien}\12 - Eso Beso.wav

Pre-gap length 0:00:02.00

Peak level 100.0 %
Track quality 100.0 %
Test CRC A62A657F
Copy CRC A62A657F
Copy OK

Track 13

Filename C:\cuntfist\FLAC\Paul Anka - Best Of… (2000) [FLAC] {Falcon Neue Medien}\13 - A Steel Guitar And A Glas Of Wine.wav

Pre-gap length 0:00:02.00

Peak level 100.0 %
Track quality 100.0 %
Test CRC E409288F
Copy CRC E409288F
Copy OK

Track 14

Filename C:\cuntfist\FLAC\Paul Anka - Best Of… (2000) [FLAC] {Falcon Neue Medien}\14 - Crazy Love.wav

Pre-gap length 0:00:02.00

Peak level 100.0 %
Track quality 100.0 %
Test CRC 49C47C6A
Copy CRC 49C47C6A
Copy OK

Track 15

Filename C:\cuntfist\FLAC\Paul Anka - Best Of… (2000) [FLAC] {Falcon Neue Medien}\15 - I Love You The Same Old Way.wav

Pre-gap length 0:00:02.00

Peak level 100.0 %
Track quality 100.0 %
Test CRC 2C0E9AD1
Copy CRC 2C0E9AD1
Copy OK

Track 16

Filename C:\cuntfist\FLAC\Paul Anka - Best Of… (2000) [FLAC] {Falcon Neue Medien}\16 - Summer's Gone.wav

Pre-gap length 0:00:02.00

Peak level 100.0 %
Track quality 100.0 %
Test CRC 45B4889F
Copy CRC 45B4889F
Copy OK

Track 17

Filename C:\cuntfist\FLAC\Paul Anka - Best Of… (2000) [FLAC] {Falcon Neue Medien}\17 - Cinderella.wav

Pre-gap length 0:00:02.00

Peak level 100.0 %
Track quality 99.9 %
Test CRC BDF98E47
Copy CRC BDF98E47
Copy OK

Track 18

Filename C:\cuntfist\FLAC\Paul Anka - Best Of… (2000) [FLAC] {Falcon Neue Medien}\18 - Adam And Eve.wav

Pre-gap length 0:00:02.00

Peak level 100.0 %
Track quality 100.0 %
Test CRC B7A6A263
Copy CRC B7A6A263
Copy OK

No errors occurred

End of status report


Paul Anka - Best Of... (2000) {Falcon Neue Medien}


Thank you to the original uploader.