Tags
Language
Tags

PFM - Canta De Andre (2008) [2014, Vivid Sound Japan, VSCD-4241]

Posted By:
PFM - Canta De Andre (2008) [2014, Vivid Sound Japan, VSCD-4241]

PFM - Canta De Andre (2008)
EAC | Flac(Image) + Cue + Log & MP3 CBR 320Kbps
Vivid Sound Japan, VSCD-4241 | ~ 397 or 135 Mb | Scans(png) -> 279 Mb
Progressive Rock

In 1978 and 1979 pfm went on tour with fabrizio de andre' and this collaboration resulted in an extraordinary album. The special cocktail of prog music, intense lyrics and the interpretation of fabrizio de andre' charmed the audience. 30 years after this event, pfm releases an album which is a tribute to fabrizio de andre' and his songs.

~ amazon
PFM - Canta De Andre (2008):

PFM - Canta De Andre (2008) [2014, Vivid Sound Japan, VSCD-4241]

Tracklist:

01. Bocca Di Rosa 05:05
02. La Guerra Di Piero 04:00
03. Un Giudice 03:24
04. Giugno '73 05:23
05. Maria Nella Bottega Del Falegname 05:03
06. Il Testamento Di Tito 06:40
07. Zirichiltaggia 02:45
08. Volta La Carta 04:19
09. La Canzone Di Marinella 03:45
10. Amico Fragile 11:56
11. Il Pescatore 04:48

Exact Audio Copy V1.0 beta 3 from 29. August 2011

EAC extraction logfile from 19. July 2014, 20:30

PFM / Canta De Andre SHM-CD

Used drive : PLEXTOR BD-R PX-B950SA Adapter: 6 ID: 0

Read mode : Secure
Utilize accurate stream : Yes
Defeat audio cache : Yes
Make use of C2 pointers : No

Read offset correction : 6
Overread into Lead-In and Lead-Out : No
Fill up missing offset samples with silence : Yes
Delete leading and trailing silent blocks : No
Null samples used in CRC calculations : Yes
Used interface : Native Win32 interface for Win NT & 2000

Used output format : Internal WAV Routines
Sample format : 44.100 Hz; 16 Bit; Stereo


TOC of the extracted CD

Track | Start | Length | Start sector | End sector
––––––––––––––––––––––––––––-
1 | 0:00.00 | 5:05.56 | 0 | 22930
2 | 5:05.56 | 4:00.22 | 22931 | 40952
3 | 9:06.03 | 3:24.06 | 40953 | 56258
4 | 12:30.09 | 5:23.27 | 56259 | 80510
5 | 17:53.36 | 5:03.72 | 80511 | 103307
6 | 22:57.33 | 6:40.40 | 103308 | 133347
7 | 29:37.73 | 2:45.68 | 133348 | 145790
8 | 32:23.66 | 4:19.19 | 145791 | 165234
9 | 36:43.10 | 3:45.27 | 165235 | 182136
10 | 40:28.37 | 11:56.44 | 182137 | 235880
11 | 52:25.06 | 4:48.33 | 235881 | 257513


Range status and errors

Selected range

Filename C:\Users\Meijin\Desktop\ALLexxess\PFM\2008 Canta De Andre (Mini LP SHM-CD Vivid Sound Japan 2014)\PFM - Canta De Andre SHM-CD.wav

Peak level 100.0 %
Extraction speed 7.3 X
Range quality 99.9 %
Test CRC 9E0D87FE
Copy CRC 9E0D87FE
Copy OK

No errors occurred


AccurateRip summary

Track 1 cannot be verified as accurate (confidence 8) [95767E32], AccurateRip returned [DCE58BD1] (AR v2)
Track 2 cannot be verified as accurate (confidence 8) [32C3DF00], AccurateRip returned [353C4563] (AR v2)
Track 3 cannot be verified as accurate (confidence 8) [F3C21C14], AccurateRip returned [CEC5D29B] (AR v2)
Track 4 cannot be verified as accurate (confidence 8) [80284DA8], AccurateRip returned [0E386102] (AR v2)
Track 5 cannot be verified as accurate (confidence 8) [0962E83A], AccurateRip returned [57FA07EA] (AR v2)
Track 6 cannot be verified as accurate (confidence 8) [9AAA0004], AccurateRip returned [95F348D5] (AR v2)
Track 7 cannot be verified as accurate (confidence 8) [33A84B82], AccurateRip returned [DADBECF2] (AR v2)
Track 8 cannot be verified as accurate (confidence 8) [6B795168], AccurateRip returned [F2AABE7F] (AR v2)
Track 9 cannot be verified as accurate (confidence 8) [28395E0C], AccurateRip returned [637DB550] (AR v2)
Track 10 cannot be verified as accurate (confidence 8) [153DE952], AccurateRip returned [B10A2467] (AR v2)
Track 11 cannot be verified as accurate (confidence 8) [43ADF680], AccurateRip returned [D9DA2D59] (AR v2)

No tracks could be verified as accurate
You may have a different pressing from the one(s) in the database

End of status report

PFM - Canta De Andre (2008) [2014, Vivid Sound Japan, VSCD-4241]

All thanks go to ALLexxess