Tags
Language
Tags

Pro Musica Antiqua, Chorus & Chamber Orchestra - Christmas Favorites (199-) {L.D.M.I.} **[RE-UP]**

Posted By: TestTickles
Pro Musica Antiqua, Chorus & Chamber Orchestra - Christmas Favorites (199-) {L.D.M.I.} **[RE-UP]**

Pro Musica Antiqua, Chorus & Chamber Orchestra - Christmas Favorites (199-) {L.D.M.I.}
EAC Rip | FLAC with CUE and log | scans | 259 mb
MP3 CBR 320kbps | RAR | 137 mb
Genre: Christmas, classical

Christmas Favorites is a CD by Pro Musica Antiqua, Chorus & Chamber Orchestra. The album, released by L.D.M.I., is subtitled HighLights From Handel's "The Messiah" & Tchaikovsky's "The Nutcracker", originally released in 1976 and unknown.

Pro Musica Antiqua, Chorus & Chamber Orchestra - Christmas Favorites (199-) {L.D.M.I.} **[RE-UP]**

Highlights From "The Messiah"
1. Hallelujah (4:01)
2. Every Valley Shall Be Exalted (3:18)
3. O Thou Tllest Good Tidings To Zion (5:29)
4. How Beautiful Are The Feet (2:39)
5. Why Do The Nations (2:13)
6. For Unto Us A Child Is Born (2:46)
7. Comfort Ye My People (3:19)
8. We Trusted In God (2:14)
9. I Know That My Redeemer Liveth (4:38)
10. The Trumpet Shall Sound (3:35)
11. Amen (2:43)

Highlights From "The Nutcracker"
12. Minature Overture (3:15)
13. March (2:44)
14. Dance Of The Sugar Plum Fairy (2:06)
15. Russian Dance (1:12)
16. Arabian Dance (3:37)
17. Chinese Dance (1:20)
18. Dance Of The Reed Flutes (2:36)
19. Waltz Of The Flowers (7:04)

Pro Musica Antiqua, Chorus & Chamber Orchestra
Randolph Jones, conductor

Exact Audio Copy V1.1 from 23. June 2015

EAC extraction logfile from 21. November 2016, 23:37

Pro Musica Antiqua, Chorus & Chamber Orchestra / Christmas Favorites

Used drive : TEAC DVD-ROM DV-28SW Adapter: 1 ID: 0

Read mode : Secure
Utilize accurate stream : Yes
Defeat audio cache : Yes
Make use of C2 pointers : No

Read offset correction : 6
Overread into Lead-In and Lead-Out : No
Fill up missing offset samples with silence : Yes
Delete leading and trailing silent blocks : No
Null samples used in CRC calculations : Yes
Used interface : Native Win32 interface for Win NT & 2000
Gap handling : Appended to previous track

Used output format : Internal WAV Routines
Sample format : 44.100 Hz; 16 Bit; Stereo


TOC of the extracted CD

Track | Start | Length | Start sector | End sector
––––––––––––––––––––––––––––-
1 | 0:00.32 | 4:12.08 | 32 | 18939
2 | 4:12.40 | 3:24.47 | 18940 | 34286
3 | 7:37.12 | 5:31.73 | 34287 | 59184
4 | 13:09.10 | 2:43.05 | 59185 | 71414
5 | 15:52.15 | 2:21.25 | 71415 | 82014
6 | 18:13.40 | 2:54.07 | 82015 | 95071
7 | 21:07.47 | 3:27.25 | 95072 | 110621
8 | 24:34.72 | 2:21.30 | 110622 | 121226
9 | 26:56.27 | 4:47.40 | 121227 | 142791
10 | 31:43.67 | 3:48.65 | 142792 | 159956
11 | 35:32.57 | 2:47.08 | 159957 | 172489
12 | 38:19.65 | 3:20.25 | 172490 | 187514
13 | 41:40.15 | 2:48.37 | 187515 | 200151
14 | 44:28.52 | 2:10.40 | 200152 | 209941
15 | 46:39.17 | 1:15.53 | 209942 | 215619
16 | 47:54.70 | 3:41.42 | 215620 | 232236
17 | 51:36.37 | 1:27.00 | 232237 | 238761
18 | 53:03.37 | 2:41.30 | 238762 | 250866
19 | 55:44.67 | 7:05.58 | 250867 | 282799


Track 1

Filename C:\My Documents\My FLAC\Pro Musica Antiqua, Chorus & Chamber Orchestra - Christmas Favorites (199-) [FLAC] {L.D.M.I.}\01 - Hallelujah.wav

Pre-gap length 0:00:02.32

Peak level 95.7 %
Extraction speed 1.1 X
Track quality 100.0 %
Test CRC 1F55A23E
Copy CRC 1F55A23E
Track not present in AccurateRip database
Copy OK

Track 2

Filename C:\My Documents\My FLAC\Pro Musica Antiqua, Chorus & Chamber Orchestra - Christmas Favorites (199-) [FLAC] {L.D.M.I.}\02 - Every Valley Shall Be Exalted.wav

Pre-gap length 0:00:07.20

Peak level 97.7 %
Extraction speed 1.2 X
Track quality 100.0 %
Test CRC 12ED7526
Copy CRC 12ED7526
Track not present in AccurateRip database
Copy OK

Track 3

Filename C:\My Documents\My FLAC\Pro Musica Antiqua, Chorus & Chamber Orchestra - Christmas Favorites (199-) [FLAC] {L.D.M.I.}\03 - O Thou Tllest Good Tidings To Zion.wav

Pre-gap length 0:00:07.40

Peak level 76.2 %
Extraction speed 1.3 X
Track quality 99.9 %
Test CRC 3E2CF3C9
Copy CRC 3E2CF3C9
Track not present in AccurateRip database
Copy OK

Track 4

Filename C:\My Documents\My FLAC\Pro Musica Antiqua, Chorus & Chamber Orchestra - Christmas Favorites (199-) [FLAC] {L.D.M.I.}\04 - How Beautiful Are The Feet.wav

Pre-gap length 0:00:06.03

Peak level 72.0 %
Extraction speed 1.4 X
Track quality 100.0 %
Test CRC 0B48729F
Copy CRC 0B48729F
Track not present in AccurateRip database
Copy OK

Track 5

Filename C:\My Documents\My FLAC\Pro Musica Antiqua, Chorus & Chamber Orchestra - Christmas Favorites (199-) [FLAC] {L.D.M.I.}\05 - Why Do The Nations.wav

Pre-gap length 0:00:06.03

Peak level 79.6 %
Extraction speed 1.5 X
Track quality 100.0 %
Test CRC 5DB6D7B6
Copy CRC 5DB6D7B6
Track not present in AccurateRip database
Copy OK

Track 6

Filename C:\My Documents\My FLAC\Pro Musica Antiqua, Chorus & Chamber Orchestra - Christmas Favorites (199-) [FLAC] {L.D.M.I.}\06 - For Unto Us A Child Is Born.wav

Pre-gap length 0:00:06.58

Peak level 70.6 %
Extraction speed 0.4 X
Track quality 100.0 %
Test CRC 5E1F68D1
Copy CRC 5E1F68D1
Track not present in AccurateRip database
Copy OK

Track 7

Filename C:\My Documents\My FLAC\Pro Musica Antiqua, Chorus & Chamber Orchestra - Christmas Favorites (199-) [FLAC] {L.D.M.I.}\07 - Comfort Ye My People.wav

Pre-gap length 0:00:11.20

Peak level 83.3 %
Extraction speed 1.6 X
Track quality 100.0 %
Test CRC 9477E5B4
Copy CRC 9477E5B4
Track not present in AccurateRip database
Copy OK

Track 8

Filename C:\My Documents\My FLAC\Pro Musica Antiqua, Chorus & Chamber Orchestra - Christmas Favorites (199-) [FLAC] {L.D.M.I.}\08 - We Trusted In God.wav

Pre-gap length 0:00:07.27

Peak level 74.1 %
Extraction speed 1.3 X
Track quality 99.9 %
Test CRC A075AD2A
Copy CRC A075AD2A
Track not present in AccurateRip database
Copy OK

Track 9

Filename C:\My Documents\My FLAC\Pro Musica Antiqua, Chorus & Chamber Orchestra - Christmas Favorites (199-) [FLAC] {L.D.M.I.}\09 - I Know That My Redeemer Liveth.wav

Pre-gap length 0:00:06.22

Peak level 72.4 %
Extraction speed 1.9 X
Track quality 100.0 %
Test CRC 61A1469E
Copy CRC 61A1469E
Track not present in AccurateRip database
Copy OK

Track 10

Filename C:\My Documents\My FLAC\Pro Musica Antiqua, Chorus & Chamber Orchestra - Christmas Favorites (199-) [FLAC] {L.D.M.I.}\10 - The Trumpet Shall Sound.wav

Pre-gap length 0:00:06.12

Peak level 80.0 %
Extraction speed 1.9 X
Track quality 100.0 %
Test CRC 553350F4
Copy CRC 553350F4
Track not present in AccurateRip database
Copy OK

Track 11

Filename C:\My Documents\My FLAC\Pro Musica Antiqua, Chorus & Chamber Orchestra - Christmas Favorites (199-) [FLAC] {L.D.M.I.}\11 - Amen.wav

Pre-gap length 0:00:12.60

Peak level 70.4 %
Extraction speed 1.7 X
Track quality 100.0 %
Test CRC 31CC9CEF
Copy CRC 31CC9CEF
Track not present in AccurateRip database
Copy OK

Track 12

Filename C:\My Documents\My FLAC\Pro Musica Antiqua, Chorus & Chamber Orchestra - Christmas Favorites (199-) [FLAC] {L.D.M.I.}\12 - Minature Overture.wav

Pre-gap length 0:00:02.70

Peak level 80.5 %
Extraction speed 2.0 X
Track quality 100.0 %
Test CRC 5A76CE35
Copy CRC 5A76CE35
Track not present in AccurateRip database
Copy OK

Track 13

Filename C:\My Documents\My FLAC\Pro Musica Antiqua, Chorus & Chamber Orchestra - Christmas Favorites (199-) [FLAC] {L.D.M.I.}\13 - March.wav

Pre-gap length 0:00:05.68

Peak level 82.6 %
Extraction speed 1.7 X
Track quality 100.0 %
Test CRC 5CE5DC0F
Copy CRC 5CE5DC0F
Track not present in AccurateRip database
Copy OK

Track 14

Filename C:\My Documents\My FLAC\Pro Musica Antiqua, Chorus & Chamber Orchestra - Christmas Favorites (199-) [FLAC] {L.D.M.I.}\14 - Dance Of The Sugar Plum Fairy.wav

Pre-gap length 0:00:04.25

Peak level 50.7 %
Extraction speed 1.4 X
Track quality 100.0 %
Test CRC 26AE9B62
Copy CRC 26AE9B62
Track not present in AccurateRip database
Copy OK

Track 15

Filename C:\My Documents\My FLAC\Pro Musica Antiqua, Chorus & Chamber Orchestra - Christmas Favorites (199-) [FLAC] {L.D.M.I.}\15 - Russian Dance.wav

Pre-gap length 0:00:04.65

Peak level 94.2 %
Extraction speed 0.2 X
Track quality 99.8 %
Test CRC 3873F1C0
Copy CRC 3873F1C0
Track not present in AccurateRip database
Copy OK

Track 16

Filename C:\My Documents\My FLAC\Pro Musica Antiqua, Chorus & Chamber Orchestra - Christmas Favorites (199-) [FLAC] {L.D.M.I.}\16 - Arabian Dance.wav

Pre-gap length 0:00:04.30

Peak level 23.1 %
Extraction speed 2.2 X
Track quality 100.0 %
Test CRC 7B4EB23B
Copy CRC 7B4EB23B
Track not present in AccurateRip database
Copy OK

Track 17

Filename C:\My Documents\My FLAC\Pro Musica Antiqua, Chorus & Chamber Orchestra - Christmas Favorites (199-) [FLAC] {L.D.M.I.}\17 - Chinese Dance.wav

Pre-gap length 0:00:04.00

Peak level 57.4 %
Extraction speed 1.6 X
Track quality 100.0 %
Test CRC A5F356FB
Copy CRC A5F356FB
Track not present in AccurateRip database
Copy OK

Track 18

Filename C:\My Documents\My FLAC\Pro Musica Antiqua, Chorus & Chamber Orchestra - Christmas Favorites (199-) [FLAC] {L.D.M.I.}\18 - Dance Of The Reed Flutes.wav

Pre-gap length 0:00:07.25

Peak level 76.5 %
Extraction speed 2.2 X
Track quality 100.0 %
Test CRC B1051C0A
Copy CRC B1051C0A
Track not present in AccurateRip database
Copy OK

Track 19

Filename C:\My Documents\My FLAC\Pro Musica Antiqua, Chorus & Chamber Orchestra - Christmas Favorites (199-) [FLAC] {L.D.M.I.}\19 - Waltz Of The Flowers.wav

Pre-gap length 0:00:05.22

Peak level 99.8 %
Extraction speed 2.5 X
Track quality 100.0 %
Test CRC DD574AAB
Copy CRC DD574AAB
Track not present in AccurateRip database
Copy OK


None of the tracks are present in the AccurateRip database

No errors occurred

End of status report

–– CUETools DB Plugin V2.1.6

[CTDB TOCID: NOemKXQqs46Q.aaKvOfVU5_5nzo-] disk not present in database
Submit result: NOemKXQqs46Q.aaKvOfVU5_5nzo- has been uploaded


==== Log checksum 8BD177AEB8FB861E27169E49464E6BE2CC07788B706E1CBE34E15B63710B9158 ====


Pro Musica Antiqua, Chorus & Chamber Orchestra - Christmas Favorites (199-) {L.D.M.I.} **[RE-UP]**