Subcategories

Prince & The New Power Generation - Gett Off (US CD5) (1991) {Paisley Park} **[RE-UP]**

Posted By: TestTickles
Prince & The New Power Generation - Gett Off (US CD5) (1991) {Paisley Park} **[RE-UP]**

Prince & The New Power Generation - Gett Off (US CD5) (1991) {Paisley Park}
EAC Rip | FLAC with CUE and log | scans | 294 mb
MP3 CBR 320kbps | RAR | 109 mb
Genre: R&B, soul, hip-hop, rap

Gett Off is the 1991 CD5 by Prince & The New Power Generation. Originally released as a birthday record in June 1991, it became his first single in support of his Diamonds & Pearls album. This was released by Paisley Park Records through Warner Bros.
Prince was in need of a serious recovery following the failure of his Graffiti Bridge project. He briefly introduced his new band in the movie and soundtrack album, but it was obvious to many that he needed to offer something with a bit more substance.

In 1991 he offered a preview of what was to come by pressing up a special 12" single mailed out to radio, media, and friends. It also helped that the 12" single was released in honor of Prince's birthday. It was a new track called "Gett Off", where some of the raunch Prince had been known for on earlier records had resurfaced.

A month or so later the music video game out, featuring the new characters of "Diamond" and "Pearl". Prince was there, with the New Power Generation, in the middle of an orgy which seemed to never end.

As was customary with Prince, even if you saw the exotic sexiness of the video, you had to go to the 12" single for further instructions on what to do next.

Instead of offering a remix or two and an instrumental, Prince went further by doing completely different songs, with the main "Gett Off" beat being the common thread running through. The Houstyle mix of "Gett Off" is a house mix, but it comes off as a completely new song, with a new vocal track from Prince and background vocalist Rosie Gaines. "Violet The Organ Grinder" is Prince doing his best to show that he can rap as good as anyone else. "Gangster Glam" has Tony M. dropping rhymes. The original single closed with "Clockin' The Jizz", where Prince gets to take the song into the jazz world.

Prince went even one step further by creating music videos for the songs on the 12" single (tracks 1-3, 5-6) and released it exclusively on home video.

This CD single adds two mixes that aren't on the original vinyl, the house flavored "Flutestrumental" mix where you get to hear more flute work from Eric Leeds. while the "Extended Remix" is the full mix of the album that was shortened considerably for the album.

"Gett Off" would become the first single in support of Prince's Diamonds And Pearls.

Prince & The New Power Generation - Gett Off (US CD5) (1991) {Paisley Park} **[RE-UP]**

01. Gett Off (Single Remix)
02. Gett Off (Houstyle)
03. Violet The Organ Grinder
04. Gett Off (Flutestramental)
05. Gangster Glam
06. Clockin' The Jizz (Instrumental)
07. Gett Off (Extended Remix)

Produced, Arranged, Composed And Performed by Prince And The N.P.G.

Prince & The New Power Generation - Gett Off (US CD5) (1991) {Paisley Park} **[RE-UP]**


EAC extraction logfile from 20. April 2006, 9:39 for CD
Prince & The New Power Generation / Gett Off (CD5)

Used drive : LITE-ON DVDRW SOHW-1633S Adapter: 0 ID: 0
Read mode : Secure with NO C2, accurate stream, disable cache
Read offset correction : 12
Overread into Lead-In and Lead-Out : No

Used output format : Internal WAV Routines
44.100 Hz; 16 Bit; Stereo

Other options :
Fill up missing offset samples with silence : Yes
Delete leading and trailing silent blocks : No
Installed external ASPI interface


Track 1
Filename D:\FLAC\Prince & The New Power Generation - Gett Off (US CD5) (1991) [FLAC] {Paisley Park}\01 - Gett Off (Single Remix).wav

Pre-gap length 0:00:02.42

Peak level 95.1 %
Track quality 100.0 %
Test CRC 5E33F7D4
Copy CRC 5E33F7D4
Copy OK

Track 2
Filename D:\FLAC\Prince & The New Power Generation - Gett Off (US CD5) (1991) [FLAC] {Paisley Park}\02 - Gett Off (Houstyle).wav

Peak level 100.0 %
Track quality 99.9 %
Test CRC 0BA51E4C
Copy CRC 0BA51E4C
Copy OK

Track 3
Filename D:\FLAC\Prince & The New Power Generation - Gett Off (US CD5) (1991) [FLAC] {Paisley Park}\03 - Violet The Organ Grinder.wav

Pre-gap length 0:00:00.04

Peak level 100.0 %
Track quality 100.0 %
Test CRC DCB024D5
Copy CRC DCB024D5
Copy OK

Track 4
Filename D:\FLAC\Prince & The New Power Generation - Gett Off (US CD5) (1991) [FLAC] {Paisley Park}\04 - Gett Off (Flutestramental).wav

Peak level 99.8 %
Track quality 100.0 %
Test CRC 97254B52
Copy CRC 97254B52
Copy OK

Track 5
Filename D:\FLAC\Prince & The New Power Generation - Gett Off (US CD5) (1991) [FLAC] {Paisley Park}\05 - Gangster Glam.wav

Peak level 100.0 %
Track quality 100.0 %
Test CRC B3165138
Copy CRC B3165138
Copy OK

Track 6
Filename D:\FLAC\Prince & The New Power Generation - Gett Off (US CD5) (1991) [FLAC] {Paisley Park}\06 - Clockin' The Jizz (Instrumental).wav

Peak level 94.5 %
Track quality 99.9 %
Test CRC 9B70469B
Copy CRC 9B70469B
Copy OK

Track 7
Filename D:\FLAC\Prince & The New Power Generation - Gett Off (US CD5) (1991) [FLAC] {Paisley Park}\07 - Gett Off (Extended Remix).wav

Peak level 98.0 %
Track quality 100.0 %
Test CRC 3EE911A1
Copy CRC 3EE911A1
Copy OK

No errors occured


End of status report


Prince & The New Power Generation - Gett Off (US CD5) (1991) {Paisley Park} **[RE-UP]**


Check out other titles in my Avaxhome blog