Tags
Language
Tags

Palladian Ensemble - An Excess of Pleasure. The Winged Lion (2008)

Posted By:
Palladian Ensemble - An Excess of Pleasure. The Winged Lion (2008)

Palladian Ensemble - An Excess of Pleasure. The Winged Lion (2008)
EAC | FLAC | Image (Cue & Log) ~ 589 Mb | Total time: 66:03+65:37 | Scans included
Classical | Label: Linn Records | CKD 321 | Recorded: 1992, 1993

Some of the connections with Venice may be a little tenuous, and this particular Winged Lion even circles over Spain clutching a Venetian guitar. The Palladian Ensemble's debut disc was called An Excess of Pleasure; the sequal offers nothing less! From two gutsy Vivaldi concertos via the dashing caprice of Santiago de Murcia's La Jota to a canzon by Cavalli which discharges itself in a haunting echo of Monteverdi's Lamento della Ninfa, the programme continually surprises and enchants. The playing too.
On nearly 70 minutes of outstanding music ther are hardly two sour notes, but technical assuredness is only the start. Crystal clear articulation makes the most of lithe counterpoint, a sensuous hedonism reinforces the Venetian motto Viver Felice - live happily - and for all the evident thought that has gone into these performances, there's a freshness that makes even well-worn patterns sound newly discovered.
Palladians (formerly the Palladian Ensemble) is a quartet of the highest calibre, firmly established on the international music scene since 1991. They present baroque chamber music infused with style, uninhibited virtuosity and intelligent musicianship.
The Palladian Ensemble's award-winning series of recordings for Linn Records have received unanimous praise. An Excess of Pleasure, A Choice Collection and Held by the Ears won the prestigious Diapason d'Or, with others winning Gramophone 'Editor's Choice' plaudits.

Performer:
Palladian Ensemble
Pamela Thorby, recorder, voice flute
Rachel Podger, violin
Joanna Levine, cello, viola da gamba, violine
William Carter, guitar, archlute, theorbo

Track List:
CD1:
Marco Uccellini (1603-1680)
01. Aria sopra la Bergamasca
Nicola Matteis (fl.1670)
Ayres for the violin
02. Aria spagnuola a due corde
03. Diverse bizzarie sopra la vecchia - Sarabanda o pur Ciaconna
Matthew Locke (1621/2-1677)
Broken Consort In D
04. Pavan
05. Ayre
06. Galliard
07. Ayre
08. Saraband
Christopher Simpson (c.1605-1669)
09. Divisions on "John come kiss me now"
John Blow (1649-1708)
Sonata in A
10. Slow
11. (Untitled)
12. Brisk
Biagio Marini (c.1587-1663)
13. Sonata
Anon (c.1660)
14. Ciaconna
Francesco Geminiani (1687-1762)
Scots Airs
15. Auld Bob Morrice
16. Lady Anne Bothwell's Lament
17. Sleepy Body
Nicola Matteis
Ayres for the Violin
18. Andamento con divisione
19. Aria
20. Grave
21. Ground In D
Henry Purcell (1659-1695)
22. Two in One Upon a Ground
Nicola Matteis
23. Bizzarie all'imor scozzeze
CD2:
Dario Castello (fl.1620)
01. Sonata Duodecima
Giovanni Battista Vitali (1632-1692)
02. Ciaconna
Marco Uccellini (1603-1680)
03. Sonata Quarto
Antonio Vivaldi (1676-1741)
Concerto in F major RV 100
04. Allegro
05. (Untitled)
06. Allegro
Giovanni Battista Buonamente (d.1642)
Suite: (Book III 1626)
07. Gagliarda seconda
08. Corrente terza e quarta
09. Brando terza
10. Avanti il Brando
11. Brando Quarto
Francesco Cavalli (1607-1676)
12. Canzon
Santiago De Murcia (fl.1700)
13. El Amor
14. La Jota
Francesco Turini (1589-1656)
15. Sonata a tre
Antonio Vivaldi
Concerto in D major RV 84
16. (Untitled)
17. Largo
18. Allegro
Marco Uccellini
19. Aria 'Caporal Simon'
20. Aria 'la mia pedrina'
21. Aria 'Le scatola da gli agghi'


Exact Audio Copy V1.3 from 2. September 2016

EAC extraction logfile from 1. February 2018, 21:46

Pamela Thorby, Rachel Podger, Joanna Levine, William Carter / An Excess of Pleasure

Used drive : LENOVO USB_SATA_Burner4 Adapter: 0 ID: 0

Read mode : Secure
Utilize accurate stream : Yes
Defeat audio cache : Yes
Make use of C2 pointers : No

Read offset correction : 6
Overread into Lead-In and Lead-Out : No
Fill up missing offset samples with silence : Yes
Delete leading and trailing silent blocks : No
Null samples used in CRC calculations : Yes
Used interface : Installed external ASPI interface

Used output format : User Defined Encoder
Selected bitrate : 1024 kBit/s
Quality : High
Add ID3 tag : No
Command line compressor : C:\Program Files (x86)\Exact Audio Copy\FLAC\FLAC.EXE
Additional command line options : -8 -V -T "TITLE=%title%" -T "ARTIST=%artist%" -T "ALBUMARTIST=%albumartist%" -T "ALBUM=%albumtitle%" -T "DATE=%year%" -T "TRACKNUMBER=%tracknr%" -T "TRACKTOTAL=%numtracks%" -T "GENRE=%genre%" -T "COMMENT=%comment%" -T "PERFORMER=%albuminterpret%" -T "COMPOSER=%composer%" %source% -o %dest%


TOC of the extracted CD

Track | Start | Length | Start sector | End sector
––––––––––––––––––––––––––––-
1 | 0:00.32 | 3:39.73 | 32 | 16529
2 | 3:40.30 | 2:41.37 | 16530 | 28641
3 | 6:21.67 | 4:43.33 | 28642 | 49899
4 | 11:05.25 | 4:44.22 | 49900 | 71221
5 | 15:49.47 | 1:35.38 | 71222 | 78384
6 | 17:25.10 | 1:31.10 | 78385 | 85219
7 | 18:56.20 | 1:37.30 | 85220 | 92524
8 | 20:33.50 | 1:20.12 | 92525 | 98536
9 | 21:53.62 | 4:43.40 | 98537 | 119801
10 | 26:37.27 | 3:04.68 | 119802 | 133669
11 | 29:42.20 | 1:07.37 | 133670 | 138731
12 | 30:49.57 | 2:16.20 | 138732 | 148951
13 | 33:06.02 | 5:17.15 | 148952 | 172741
14 | 38:23.17 | 3:52.58 | 172742 | 190199
15 | 42:16.00 | 2:57.72 | 190200 | 203546
16 | 45:13.72 | 2:39.25 | 203547 | 215496
17 | 47:53.22 | 2:16.18 | 215497 | 225714
18 | 50:09.40 | 2:12.62 | 225715 | 235676
19 | 52:22.27 | 1:01.15 | 235677 | 240266
20 | 53:23.42 | 2:07.10 | 240267 | 249801
21 | 55:30.52 | 3:05.70 | 249802 | 263746
22 | 58:36.47 | 2:50.33 | 263747 | 276529
23 | 61:27.05 | 4:19.30 | 276530 | 295984


Range status and errors

Selected range

Filename C:\EACRip\An Excess of Pleasure. The Winged Lion (Palladian Ensemble)(edition 2008)\CD1\An Excess of Pleasure - Palladian Ensemble.wav

Peak level 90.2 %
Extraction speed 2.0 X
Range quality 99.9 %
Test CRC EFDAA88C
Copy CRC EFDAA88C
Copy OK

No errors occurred


AccurateRip summary

Track 1 accurately ripped (confidence 6) [BCAA3197] (AR v2)
Track 2 accurately ripped (confidence 6) [ABDCDF7E] (AR v2)
Track 3 accurately ripped (confidence 6) [B8139F5C] (AR v2)
Track 4 accurately ripped (confidence 6) [3CEE1DD2] (AR v2)
Track 5 accurately ripped (confidence 6) [BF6A1820] (AR v2)
Track 6 accurately ripped (confidence 6) [3F054A6C] (AR v2)
Track 7 accurately ripped (confidence 6) [AD7E0149] (AR v2)
Track 8 accurately ripped (confidence 6) [258EA851] (AR v2)
Track 9 accurately ripped (confidence 6) [81EC63DC] (AR v2)
Track 10 accurately ripped (confidence 6) [9EC122D3] (AR v2)
Track 11 accurately ripped (confidence 6) [9F96B504] (AR v2)
Track 12 accurately ripped (confidence 6) [0B556B20] (AR v2)
Track 13 accurately ripped (confidence 6) [4AB00D2E] (AR v2)
Track 14 accurately ripped (confidence 6) [8A9AF6E4] (AR v2)
Track 15 accurately ripped (confidence 6) [9EC4F427] (AR v2)
Track 16 accurately ripped (confidence 6) [EB20ED61] (AR v2)
Track 17 accurately ripped (confidence 6) [050AA07B] (AR v2)
Track 18 accurately ripped (confidence 6) [EA8F01EE] (AR v2)
Track 19 accurately ripped (confidence 5) [266E2545] (AR v2)
Track 20 accurately ripped (confidence 5) [A03507BC] (AR v2)
Track 21 accurately ripped (confidence 6) [56221E45] (AR v2)
Track 22 accurately ripped (confidence 6) [B83A7601] (AR v2)
Track 23 accurately ripped (confidence 6) [8184C5D9] (AR v2)

All tracks accurately ripped

End of status report

–– CUETools DB Plugin V2.1.6

[CTDB TOCID: TWW4jNU6rRr9a8YY6r8Xfx.Vbrk-] found
Submit result: TWW4jNU6rRr9a8YY6r8Xfx.Vbrk- has been confirmed
Track | CTDB Status
1 | (29/29) Accurately ripped
2 | (29/29) Accurately ripped
3 | (22/29) Accurately ripped, or (7/29) differs in 3 samples @04:35:56
4 | (29/29) Accurately ripped
5 | (29/29) Accurately ripped
6 | (29/29) Accurately ripped
7 | (29/29) Accurately ripped
8 | (29/29) Accurately ripped
9 | (29/29) Accurately ripped
10 | (28/29) Accurately ripped
11 | (29/29) Accurately ripped
12 | (29/29) Accurately ripped
13 | (29/29) Accurately ripped
14 | (29/29) Accurately ripped
15 | (29/29) Accurately ripped
16 | (29/29) Accurately ripped
17 | (29/29) Accurately ripped
18 | (29/29) Accurately ripped
19 | (29/29) Accurately ripped
20 | (29/29) Accurately ripped
21 | (29/29) Accurately ripped
22 | (29/29) Accurately ripped
23 | (29/29) Accurately ripped


==== Log checksum 923A5BE02F005ADE0672A60277A13EF304E4A9AFEE3D0B28D8F05E07966DF9EC ====


Exact Audio Copy V1.3 from 2. September 2016

EAC extraction logfile from 1. February 2018, 22:53

Palladian Ensemble / The Winged Lion

Used drive : LENOVO USB_SATA_Burner4 Adapter: 0 ID: 0

Read mode : Secure
Utilize accurate stream : Yes
Defeat audio cache : Yes
Make use of C2 pointers : No

Read offset correction : 6
Overread into Lead-In and Lead-Out : No
Fill up missing offset samples with silence : Yes
Delete leading and trailing silent blocks : No
Null samples used in CRC calculations : Yes
Used interface : Installed external ASPI interface

Used output format : User Defined Encoder
Selected bitrate : 1024 kBit/s
Quality : High
Add ID3 tag : No
Command line compressor : C:\Program Files (x86)\Exact Audio Copy\FLAC\FLAC.EXE
Additional command line options : -8 -V -T "TITLE=%title%" -T "ARTIST=%artist%" -T "ALBUMARTIST=%albumartist%" -T "ALBUM=%albumtitle%" -T "DATE=%year%" -T "TRACKNUMBER=%tracknr%" -T "TRACKTOTAL=%numtracks%" -T "GENRE=%genre%" -T "COMMENT=%comment%" -T "PERFORMER=%albuminterpret%" -T "COMPOSER=%composer%" %source% -o %dest%


TOC of the extracted CD

Track | Start | Length | Start sector | End sector
––––––––––––––––––––––––––––-
1 | 0:00.32 | 7:08.13 | 32 | 32144
2 | 7:08.45 | 3:14.37 | 32145 | 46731
3 | 10:23.07 | 5:16.23 | 46732 | 70454
4 | 15:39.30 | 2:30.55 | 70455 | 81759
5 | 18:10.10 | 2:47.27 | 81760 | 94311
6 | 20:57.37 | 2:50.70 | 94312 | 107131
7 | 23:48.32 | 1:50.45 | 107132 | 115426
8 | 25:39.02 | 1:29.08 | 115427 | 122109
9 | 27:08.10 | 2:58.22 | 122110 | 135481
10 | 30:06.32 | 1:02.15 | 135482 | 140146
11 | 31:08.47 | 1:28.60 | 140147 | 146806
12 | 32:37.32 | 6:23.33 | 146807 | 175564
13 | 39:00.65 | 2:33.12 | 175565 | 187051
14 | 41:34.02 | 2:56.40 | 187052 | 200291
15 | 44:30.42 | 6:31.13 | 200292 | 229629
16 | 51:01.55 | 2:56.47 | 229630 | 242876
17 | 53:58.27 | 2:45.48 | 242877 | 255299
18 | 56:44.00 | 2:27.00 | 255300 | 266324
19 | 59:11.00 | 2:11.70 | 266325 | 276219
20 | 61:22.70 | 4:16.57 | 276220 | 295476
21 | 65:39.52 | 1:59.60 | 295477 | 304461


Range status and errors

Selected range

Filename C:\EACRip\An Excess of Pleasure. The Winged Lion (Palladian Ensemble)(edition 2008)\CD2\The Winged Lion - Palladian Ensemble.wav

Peak level 88.8 %
Extraction speed 2.1 X
Range quality 100.0 %
Test CRC 82D189E1
Copy CRC 82D189E1
Copy OK

No errors occurred


AccurateRip summary

Track 1 accurately ripped (confidence 7) [71DA30A9] (AR v2)
Track 2 accurately ripped (confidence 7) [6C3519FB] (AR v2)
Track 3 accurately ripped (confidence 7) [CC327CA9] (AR v2)
Track 4 accurately ripped (confidence 7) [B4A8D16A] (AR v2)
Track 5 accurately ripped (confidence 7) [1F44A6D3] (AR v2)
Track 6 accurately ripped (confidence 7) [5BECB046] (AR v2)
Track 7 accurately ripped (confidence 7) [C205B788] (AR v2)
Track 8 accurately ripped (confidence 7) [0AE132EA] (AR v2)
Track 9 accurately ripped (confidence 7) [5B971EE5] (AR v2)
Track 10 accurately ripped (confidence 7) [A82781FC] (AR v2)
Track 11 accurately ripped (confidence 7) [72CC7D77] (AR v2)
Track 12 accurately ripped (confidence 7) [FC30F0A3] (AR v2)
Track 13 accurately ripped (confidence 7) [2FD41087] (AR v2)
Track 14 accurately ripped (confidence 7) [E35271E3] (AR v2)
Track 15 accurately ripped (confidence 7) [868AE4D4] (AR v2)
Track 16 accurately ripped (confidence 7) [4CF3BCC8] (AR v2)
Track 17 accurately ripped (confidence 7) [8402C2C8] (AR v2)
Track 18 accurately ripped (confidence 7) [B59026FC] (AR v2)
Track 19 accurately ripped (confidence 7) [B2A98BD6] (AR v2)
Track 20 accurately ripped (confidence 7) [B7D664D0] (AR v2)
Track 21 accurately ripped (confidence 7) [F89B2ECC] (AR v2)

All tracks accurately ripped

End of status report

–– CUETools DB Plugin V2.1.6

[CTDB TOCID: h3VbY4d4O63W7QDaIZy7HGBjjl0-] found
Submit result: h3VbY4d4O63W7QDaIZy7HGBjjl0- has been confirmed
Track | CTDB Status
1 | (17/17) Accurately ripped
2 | (17/17) Accurately ripped
3 | (17/17) Accurately ripped
4 | (17/17) Accurately ripped
5 | (16/17) Accurately ripped
6 | (17/17) Accurately ripped
7 | (17/17) Accurately ripped
8 | (17/17) Accurately ripped
9 | (17/17) Accurately ripped
10 | (17/17) Accurately ripped
11 | (17/17) Accurately ripped
12 | (17/17) Accurately ripped
13 | (17/17) Accurately ripped
14 | (17/17) Accurately ripped
15 | (17/17) Accurately ripped
16 | (17/17) Accurately ripped
17 | (17/17) Accurately ripped
18 | (17/17) Accurately ripped
19 | (17/17) Accurately ripped
20 | (17/17) Accurately ripped
21 | (17/17) Accurately ripped


==== Log checksum 933077087789116BE757B3F9595EEE458BD63FE437D3488805393581FD579911 ====

Palladian Ensemble - An Excess of Pleasure. The Winged Lion (2008)

Thanks to the original releaser