Subcategories
Tags
Language
Tags

Papagena - Hush!: Songs sacred and profane, tender, consoling, witty, urbane (2020)

Posted By: ArlegZ
Papagena - Hush!: Songs sacred and profane, tender, consoling, witty, urbane (2020)

Papagena - Hush!: Songs sacred and profane, tender, consoling, witty, urbane (2020)
EAC | FLAC | Image (Cue & Log) ~ 273 Mb | Total time: 65:40 | Scans included
Classical | Label: SOMM Recordings | SOMMCD 0608 | Recorded: 2019

SOMM Recordings is delighted to announce Hush!, the second release by the extraordinary voices (BBC Radio 3) of female quintet Papagena following their internationally acclaimed, Amazon classical chart-topping debut, The Darkest Midnight (SOMMCD 0189). Hush! unearths a treasure trove of songs largely neglected on disc to deliver a stunning follow-up to The Darkest Midnight. Where it hymned the cold, harsh glamour of sun-starved winter, Hush! playful, poignant, poetic and primed with the expectation of joy celebrates the warmth and light of love. Typically for Papagena, Hush! is a centuries-spanning, genre-defying, culturally diverse recital marrying sacred and secular, ancient and modern, classical, traditional and even stadium rock. The result is an often gorgeous, always intelligent exploration of hush as a harbinger of consolation, of tranquil release and of mild admonition to pause, listen, feel and relish the quietly exultant glories of being alert and alive to the fleeting moment. Papagenas beautifully blended, pristine vocal signature illuminates ecstatic heights, anguished depths and love in all its multi-hued splendour with a becoming thread of wit and humour.

Performer:
Papagena:
Elizabeth Drury, Abbi Temple, Suzzie Vango, sopranos
Suzie Purkis, Sarah Tenant-Flowers, altos

Track List:
Don Macdonald (b.1966)
01. Moonset
Traditional Georgian
02. Shen Khar Venakhi
Flory Jagoda (b.1926)
03. Hamisha Asar
Pyotr Ill'ych Tchaikovsky (1840-1893)
04. Legend (The Crown of Roses)
Traditional Romanian
05. Sub O Salcie
Nikolai Kedrov (1871-1940)
06. Otche Nash
Kassia (810-865)
07. Ek Rizis
John Duggan (b.1963)
08. O Viridissima Virga
Traditional English
09. The Snow it Melts the Soonest
Gustav Holst (1874-1934)
10. The Swallow Leaves Her Nest
Guns N' Roses
11. Sweet Child O' Mine
Alessandro Scarlatti (1660-1725)
12. Cor Mio
Libby Larsen (b.1950)
13. Jack's Valentine
Traditional Celtic
14. Mouth Music
Jetse Bremer (b.1959)
15. Sigh No More Ladies
David Lang (b.1957)
16. I Lie
Traditional Bulgarian
17. Kakwa Moma
Jim Clements (b.1983), Caitlin Moran (b.1975)
18. The Woman's 'If'
Gavin Davenport (b.1975), Jess Arrowsmith (b.1977)
19. Changeling's Lullaby


Exact Audio Copy V1.5 from 20. February 2020

EAC extraction logfile from 18. December 2020, 22:45

Papagena / Hush! - Songs sacred and profane, tender, consoling, witty, urbane

Used drive : ASUS SDRW-08U7M-U Adapter: 1 ID: 0

Read mode : Secure
Utilize accurate stream : Yes
Defeat audio cache : Yes
Make use of C2 pointers : No

Read offset correction : 6
Overread into Lead-In and Lead-Out : No
Fill up missing offset samples with silence : Yes
Delete leading and trailing silent blocks : No
Null samples used in CRC calculations : Yes
Used interface : Native Win32 interface for Win NT & 2000

Used output format : User Defined Encoder
Selected bitrate : 128 kBit/s
Quality : High
Add ID3 tag : No
Command line compressor : C:\Program Files (x86)\Exact Audio Copy\Flac\flac.exe
Additional command line options : -V -8 -T "Date=%year%" -T "Genre=%genre%" %source%


TOC of the extracted CD

Track | Start | Length | Start sector | End sector
––––––––––––––––––––––––––––-
1 | 0:00.00 | 4:16.01 | 0 | 19200
2 | 4:16.01 | 3:28.66 | 19201 | 34866
3 | 7:44.67 | 2:48.21 | 34867 | 47487
4 | 10:33.13 | 2:45.27 | 47488 | 59889
5 | 13:18.40 | 4:51.60 | 59890 | 81774
6 | 18:10.25 | 2:31.47 | 81775 | 93146
7 | 20:41.72 | 2:13.42 | 93147 | 103163
8 | 22:55.39 | 3:47.13 | 103164 | 120201
9 | 26:42.52 | 3:36.05 | 120202 | 136406
10 | 30:18.57 | 2:30.23 | 136407 | 147679
11 | 32:49.05 | 2:47.01 | 147680 | 160205
12 | 35:36.06 | 4:53.61 | 160206 | 182241
13 | 40:29.67 | 1:21.72 | 182242 | 188388
14 | 41:51.64 | 1:47.15 | 188389 | 196428
15 | 43:39.04 | 4:42.70 | 196429 | 217648
16 | 48:21.74 | 5:03.07 | 217649 | 240380
17 | 53:25.06 | 1:47.14 | 240381 | 248419
18 | 55:12.20 | 4:18.61 | 248420 | 267830
19 | 59:31.06 | 6:09.64 | 267831 | 295569


Range status and errors

Selected range

Filename C:\temp\Hush! - Papagena - 2020\Hush!.wav

Peak level 78.7 %
Extraction speed 2.0 X
Range quality 100.0 %
Test CRC DA984A57
Copy CRC DA984A57
Copy OK

No errors occurred


AccurateRip summary

Track 1 accurately ripped (confidence 1) [11A9D88F] (AR v2)
Track 2 accurately ripped (confidence 1) [1DAB8FBC] (AR v2)
Track 3 accurately ripped (confidence 1) [67F89B90] (AR v2)
Track 4 accurately ripped (confidence 1) [A6EAA2CC] (AR v2)
Track 5 accurately ripped (confidence 1) [8BB25312] (AR v2)
Track 6 accurately ripped (confidence 1) [CE6399F0] (AR v2)
Track 7 accurately ripped (confidence 1) [7744F00E] (AR v2)
Track 8 accurately ripped (confidence 1) [950A0FE3] (AR v2)
Track 9 accurately ripped (confidence 1) [47EE9FCA] (AR v2)
Track 10 accurately ripped (confidence 1) [7EAFECA7] (AR v2)
Track 11 accurately ripped (confidence 1) [ACAB28A6] (AR v2)
Track 12 accurately ripped (confidence 1) [91ABB6EE] (AR v2)
Track 13 accurately ripped (confidence 1) [596A9049] (AR v2)
Track 14 accurately ripped (confidence 1) [D2AE999C] (AR v2)
Track 15 accurately ripped (confidence 1) [6A218CB2] (AR v2)
Track 16 accurately ripped (confidence 1) [EC32E9A4] (AR v2)
Track 17 accurately ripped (confidence 1) [08187E5D] (AR v2)
Track 18 accurately ripped (confidence 1) [B017C857] (AR v2)
Track 19 accurately ripped (confidence 1) [149066EC] (AR v2)

All tracks accurately ripped

End of status report

==== Log checksum 9DD9BCFBFE61491CF2D418A4C25F788329E488EE554F55B2C180C5CE1B353826 ====

Papagena - Hush!: Songs sacred and profane, tender, consoling, witty, urbane (2020)

Thanks to the original releaser