Tags
Language
Tags

Paquito D'Rivera - A Taste Of Paquito (1994)

Posted By:
Paquito D'Rivera - A Taste Of Paquito (1994)

Paquito D'Rivera - A Taste Of Paquito (1994)
EAC 0.95b3 | FLAC tracks level | Cue+Log+M3U | Full Scans 300dpi | 467MB + 5% Recovery
MP3 CBR 320 Kbps | 186MB + 5% Recovery
Genre: Latin Jazz

Not a greatest-hits album (like he was shooting for hits) nor a thoroughgoing anthology of Paquito D'Rivera's Columbia period (only the first five of his seven albums are covered), the word "taste" is an intriguing choice, though at 74 minutes the CD is a bit more than just a taste. But then, since Sony has done a real number on his catalog by not reissuing those first five albums, A Taste is all that CD buyers can sample from Paquito's first American recordings.
Track List
01. On Green Dolphin Street 6:53
02. Song To My Son 4:39
03. Miami 5:34
04. Como Fue 4:51
05. Manteca 5:35
06. Claudia 6:36
07. Just Kidding 7:21
08. Brussels In The Rain 6:27
09. Monk-Tuno 4:28
10. Zanaith 9:10
11. Song For Maura 8:09
12. Why Not 3:52

musicians
Paquito D'Rivera - alto sax, clarinet
Eddy Gomez - acoustic bass
Hilton Ruiz - acoustic piano, acoustic bass
Michel Camilo - acoustic piano, Yamaha DX7
Dave Weckl - drums
Manolo Badrena - timbales, percussion
Sammy Figueroa - congas, percussion
Lincoln Goines - electric bass
Russell Blake - Fender bass
Ignacio Berroa - drums
Jorge Dalto - keyboards
Jeff Fuller - acoustic bass
Daniel Ponce - congas
Claudio Roditi - trumpet, flugelhorn, valve trombone
Portinho - drums, percussion
Chucho Martinez - maracas, cuatro
Daniel Freiberg - Yamaha DX7
Sergio Brandao - - electric bass
Jose Neto - acoustic guitar, percussion
Carlos Franzetti - keyboards
Steve Bailey - acoustic and electric basses

Produced by Mike Berniker, Bert DeCoteaux, Paquito D'Rivera and Helen Keane


EAC extraction logfile from 29. September 2007, 21:11 for CD
Paquito D'Rivera / A Taste Of Paquito D'Rivera

Used drive : PLEXTOR DVDR PX-716A Adapter: 1 ID: 0
Read mode : Secure with NO C2, accurate stream, disable cache
Read offset correction : 30
Overread into Lead-In and Lead-Out : No

Used output format : Internal WAV Routines
44.100 Hz; 16 Bit; Stereo

Other options :
Fill up missing offset samples with silence : Yes
Delete leading and trailing silent blocks : No
Installed external ASPI interface


Track 1
Filename F:\[MyRip]\01 - On Green Dolphin Street.wav

Pre-gap length 0:00:02.00

Peak level 93.1 %
Track quality 100.0 %
Test CRC 345469ED
Copy CRC 345469ED
Copy OK

Track 2
Filename F:\[MyRip]\02 - Song To My Son.wav

Pre-gap length 0:00:02.12

Peak level 100.0 %
Track quality 100.0 %
Test CRC 2DBBC9F2
Copy CRC 2DBBC9F2
Copy OK

Track 3
Filename F:\[MyRip]\03 - Miami.wav

Pre-gap length 0:00:02.05

Peak level 85.4 %
Track quality 99.9 %
Test CRC FFA5A110
Copy CRC FFA5A110
Copy OK

Track 4
Filename F:\[MyRip]\04 - Como Fue.wav

Pre-gap length 0:00:02.23

Peak level 90.2 %
Track quality 99.9 %
Test CRC 7F9CE89B
Copy CRC 7F9CE89B
Copy OK

Track 5
Filename F:\[MyRip]\05 - Manteca.wav

Pre-gap length 0:00:01.70

Peak level 92.7 %
Track quality 100.0 %
Test CRC 3A98E9B8
Copy CRC 3A98E9B8
Copy OK

Track 6
Filename F:\[MyRip]\06 - Claudia.wav

Pre-gap length 0:00:02.58

Peak level 93.7 %
Track quality 100.0 %
Test CRC 7FEBEBFB
Copy CRC 7FEBEBFB
Copy OK

Track 7
Filename F:\[MyRip]\07 - Just Kidding.wav

Pre-gap length 0:00:01.40

Peak level 99.8 %
Track quality 100.0 %
Test CRC 4E4CD6D8
Copy CRC 4E4CD6D8
Copy OK

Track 8
Filename F:\[MyRip]\08 - Brussels In The Rain.wav

Pre-gap length 0:00:02.30

Peak level 95.8 %
Track quality 100.0 %
Test CRC 0188CAC5
Copy CRC 0188CAC5
Copy OK

Track 9
Filename F:\[MyRip]\09 - Monk-Tuno.wav

Pre-gap length 0:00:02.43

Peak level 100.0 %
Track quality 100.0 %
Test CRC EE3DB269
Copy CRC EE3DB269
Copy OK

Track 10
Filename F:\[MyRip]\10 - Zanaith.wav

Pre-gap length 0:00:02.15

Peak level 100.0 %
Track quality 99.9 %
Test CRC 169E8676
Copy CRC 169E8676
Copy OK

Track 11
Filename F:\[MyRip]\11 - Song For Maura.wav

Pre-gap length 0:00:03.08

Peak level 98.9 %
Track quality 100.0 %
Test CRC A06C4DE7
Copy CRC A06C4DE7
Copy OK

Track 12
Filename F:\[MyRip]\12 - Why Not.wav

Pre-gap length 0:00:02.48

Peak level 65.5 %
Track quality 100.0 %
Test CRC EC2ECDF7
Copy CRC EC2ECDF7
Copy OK

No errors occured


End of status report


––––––––––––––––––––––––––––––––––––––––
Analyzed: Paquito D'Rivera / A Taste Of Paquito
––––––––––––––––––––––––––––––––––––––––

DR Peak RMS Duration Track
––––––––––––––––––––––––––––––––––––––––
DR12 -0.61 dB -15.59 dB 6:55 ?-01 - On Green Dolphin Street
DR13 0.00 dB -15.69 dB 4:41 ?-02 - Song To My Son
DR12 -1.37 dB -16.41 dB 5:37 ?-03 - Miami
DR13 -0.89 dB -17.16 dB 4:54 ?-04 - Como Fue
DR12 -0.66 dB -14.33 dB 5:38 ?-05 - Manteca
DR12 -0.56 dB -15.15 dB 6:38 ?-06 - Claudia
DR14 -0.01 dB -15.51 dB 7:24 ?-07 - Just Kidding
DR12 -0.37 dB -16.42 dB 6:30 ?-08 - Brussels In The Rain
DR13 0.00 dB -14.66 dB 4:29 ?-09 - Monk-Tuno
DR15 0.00 dB -17.55 dB 9:14 ?-10 - Zanaith
DR13 -0.09 dB -15.47 dB 8:12 ?-11 - Song For Maura
DR13 -3.67 dB -18.50 dB 3:52 ?-12 - Why Not
––––––––––––––––––––––––––––––––––––––––

Number of tracks: 12
Official DR value: DR13

Samplerate: 44100 Hz
Channels: 2
Bits per sample: 16
Bitrate: 683 kbps
Codec: FLAC
================================================================================

Paquito D'Rivera - A Taste Of Paquito (1994)
Paquito D'Rivera - A Taste Of Paquito (1994)
Paquito D'Rivera - A Taste Of Paquito (1994)


Thanks to the original ripper