Tags
Language
Tags

Pat Metheny - Bright Size Life (1976) {ECM 1073}

Posted By: tiburon
Pat Metheny - Bright Size Life (1976) {ECM 1073}

Pat Metheny - Bright Size Life (1976) {ECM 1073}
EAC 1.0b1 | FLAC tracks level 8 | Cue+Log+M3U | Full Scans 600dpi | 209MB + 5% Recovery
MP3 CBR 320 Kbps | 93MB + 5% Recovery
Genre: Jazz, Fusion
Pat Metheny - Bright Size Life (1976) {ECM 1073}

BRIGHT SIZE LIFE, his first solo album, is an anomaly in the Pat Metheny discography. Rather than inaugurating a new era in his music, it celebrates the end of another. Of the eight superb arrangements that make up BRIGHT SIZE LIFE, only the gentle ballad "Unity Village" (an overdubbed duet between electric 6- and 12-string guitars) made it to the Pat Metheny Group repetoire. And yet, some 20 years after documenting the music of his first working group, BRIGHT SIZE LIFE endures as among the finest, freshest trio recordings in the history of jazz.
Track List
01. Bright Size Life 4:43
02. Sirabhorn 5:25
03. Unity Village 3:38
04. Missouri Uncompromised 4:13
05. Midwestern Nights Dream 5:58
06. Unquity Road 3:33
07. Omaha Celebration
08. Round Trip/Broadway Blues 4:58

All compositions by Pat Metheny

musicians
Pat Metheny - 6-string guitar, electric 12-string guitar
Jaco Pastorius - bass
Bob Moses - drums

Produced by Manfred Eicher


Exact Audio Copy V1.0 beta 1 from 15. November 2010

EAC extraction logfile from 4. June 2011, 15:20

Pat Metheny / Bright Size Life

Used drive : MATSHITADVD+-RW UJ-867S Adapter: 0 ID: 0

Read mode : Secure
Utilize accurate stream : Yes
Defeat audio cache : Yes
Make use of C2 pointers : No

Read offset correction : 102
Overread into Lead-In and Lead-Out : No
Fill up missing offset samples with silence : Yes
Delete leading and trailing silent blocks : No
Null samples used in CRC calculations : Yes
Used interface : Native Win32 interface for Win NT & 2000
Gap handling : Appended to previous track

Used output format : User Defined Encoder
Selected bitrate : 1024 kBit/s
Quality : High
Add ID3 tag : No
Command line compressor : C:\Program Files (x86)\Exact Audio Copy\FLAC.exe
Additional command line options : -8 -e -V -T "Artist=%a" -T "Date=%y" -T "Album=%g" -T "DiscNumber=1/1" -T "TrackNumber=%n" -T "Title=%t" -T "Genre=%m" -T "AlbumArtist=%a" -T "Composer=" -T "Comment=" -T "Publisher=Pseudonymous / The Soviet Alliance / Sovi


TOC of the extracted CD

Track | Start | Length | Start sector | End sector
––––––––––––––––––––––––––––-
1 | 0:00.33 | 4:45.12 | 33 | 21419
2 | 4:45.45 | 5:29.50 | 21420 | 46144
3 | 10:15.20 | 3:40.18 | 46145 | 62662
4 | 13:55.38 | 4:21.60 | 62663 | 82297
5 | 18:17.23 | 6:00.47 | 82298 | 109344
6 | 24:17.70 | 3:35.38 | 109345 | 125507
7 | 27:53.33 | 4:18.50 | 125508 | 144907
8 | 32:12.08 | 4:58.12 | 144908 | 167269


Track 1

Filename X:\Audio\Queue\Pat Metheny\1976 - Bright Size Life\01 - Bright Size Life.wav

Pre-gap length 0:00:02.33

Peak level 84.9 %
Extraction speed 1.3 X
Track quality 100.0 %
Test CRC 86AC9FF9
Copy CRC 86AC9FF9
Accurately ripped (confidence 5) [60F9E6C3]
Copy OK

Track 2

Filename X:\Audio\Queue\Pat Metheny\1976 - Bright Size Life\02 - Sirabhorn.wav

Pre-gap length 0:00:02.00

Peak level 81.8 %
Extraction speed 1.5 X
Track quality 100.0 %
Test CRC C01921E5
Copy CRC C01921E5
Accurately ripped (confidence 5) [4F34885C]
Copy OK

Track 3

Filename X:\Audio\Queue\Pat Metheny\1976 - Bright Size Life\03 - Unity Village.wav

Pre-gap length 0:00:04.37

Peak level 65.1 %
Extraction speed 1.6 X
Track quality 100.0 %
Test CRC 218C0766
Copy CRC 218C0766
Accurately ripped (confidence 5) [C4D459DE]
Copy OK

Track 4

Filename X:\Audio\Queue\Pat Metheny\1976 - Bright Size Life\04 - Missouri Uncompromised.wav

Pre-gap length 0:00:02.00

Peak level 82.4 %
Extraction speed 1.7 X
Track quality 100.0 %
Test CRC A09E3200
Copy CRC A09E3200
Accurately ripped (confidence 5) [8D9CA786]
Copy OK

Track 5

Filename X:\Audio\Queue\Pat Metheny\1976 - Bright Size Life\05 - Midwestern Nights Dream.wav

Pre-gap length 0:00:08.00

Peak level 72.6 %
Extraction speed 1.7 X
Track quality 99.9 %
Test CRC BD199196
Copy CRC BD199196
Accurately ripped (confidence 5) [29DE6BC1]
Copy OK

Track 6

Filename X:\Audio\Queue\Pat Metheny\1976 - Bright Size Life\06 - Unquity Road.wav

Pre-gap length 0:00:02.37

Peak level 81.5 %
Extraction speed 1.5 X
Track quality 99.9 %
Test CRC E1598EF8
Copy CRC E1598EF8
Accurately ripped (confidence 5) [3A94B849]
Copy OK

Track 7

Filename X:\Audio\Queue\Pat Metheny\1976 - Bright Size Life\07 - Omaha Celebration.wav

Pre-gap length 0:00:02.00

Peak level 91.3 %
Extraction speed 1.6 X
Track quality 99.9 %
Test CRC FA882A1A
Copy CRC FA882A1A
Accurately ripped (confidence 4) [0CA4AB8D]
Copy OK

Track 8

Filename X:\Audio\Queue\Pat Metheny\1976 - Bright Size Life\08 - Round Trip ; Broadway Blues.wav

Pre-gap length 0:00:02.38

Peak level 88.4 %
Extraction speed 1.9 X
Track quality 100.0 %
Test CRC 2ED7D885
Copy CRC 2ED7D885
Accurately ripped (confidence 5) [1F2424BD]
Copy OK


All tracks accurately ripped

No errors occurred

End of status report

==== Log checksum 59E7F4C39AC844BE33A1A31FCF32117C571ADECD331BEF596F0399F0A6F31AE2 ====


––––––––––––––––––––––––––––––––––––––––
Analyzed: Pat Metheny / Bright Size Life
––––––––––––––––––––––––––––––––––––––––

DR Peak RMS Duration Track
––––––––––––––––––––––––––––––––––––––––
DR11 -1.42 dB -15.27 dB 4:45 01-Bright Size Life
DR11 -1.74 dB -15.13 dB 5:30 02-Sirabhorn
DR11 -3.73 dB -19.36 dB 3:40 03-Unity Village
DR11 -1.68 dB -14.79 dB 4:22 04-Missouri Uncompromised
DR9 -2.77 dB -16.53 dB 6:01 05-Midwestern Nights Dream
DR10 -1.78 dB -13.57 dB 3:36 06-Unquity Road
DR12 -0.79 dB -14.87 dB 4:19 07-Omaha Celebration
DR12 -1.06 dB -15.24 dB 4:58 08-Round Trip / Broadway Blues
––––––––––––––––––––––––––––––––––––––––

Number of tracks: 8
Official DR value: DR11

Samplerate: 44100 Hz
Channels: 2
Bits per sample: 16
Bitrate: 861 kbps
Codec: FLAC
================================================================================

Pat Metheny - Bright Size Life (1976) {ECM 1073}
Pat Metheny - Bright Size Life (1976) {ECM 1073}
Pat Metheny - Bright Size Life (1976) {ECM 1073}


Thanks to the original ripper