Subcategories

Pat Metheny Unity Group - Kin (<-->) (2014) {Nonesuch}

Posted By: tiburon
Pat Metheny Unity Group - Kin (<-->) (2014) {Nonesuch}

Pat Metheny Unity Group - Kin (<–>) (2014) {Nonesuch}
EAC 1.0b3 | FLAC tracks level 8 | Cue+Log+M3U | Full Scans 300dpi | 476MB + 5% Recovery
MP3 CBR 320 Kbps | 161MB + 5% Recovery
Genre: Jazz, Fusion

Despite the innovation, many PMG fans have nostalgically longed for the return of more accessible material. Kin (<–>), the Unity Band's sophomore outing, should please fans of all Metheny stripes. The band is now a quintet with multi-instrumentalist Giulio Carmassi. He plays piano, strings, brass, winds, vibes, voice, and more. While the frontline remains the guitarist and Potter, the rhythm section of Williams and Sanchez is fluid in earthy and ethereal modes, seamlessly providing grooves and force, often simultaneously. Carmassi's contributions balance melody, form, texture, and interactive dynamics. Metheny's ability to convey an almost hummable sense of melodic euphoria was at the heart of the PMG's sound.
Track List
01. On Day One 15:16
02. Rise Up 11:57
03. Adagia 2:15
04. Sign Of The Season 10:14
05. Kin (<–>) 11:06
06. Born 7:51
07. Genealogy 0:38
08. We Go On 5:33
09. Kqu 5:27

musicians
Pat Metheny - electric and acoustic guitars, guitar synth, electronics, orchestrionics, synths
Chris Potter - tenor sax, bass clarinet, soprano sax, clarinet, alto flute, bass flute
Antonio Sanchez - drums, cajon
Ben Williams - acoustic and electric basses
Giulio Carmassi - piano, trumpet, trombone, french horn, cello, vibes, clarinet, flute, recorder, alto sax, Wurlitzer, whistling and vocals

Produced by Pat Metheny


Exact Audio Copy V1.0 beta 3 from 29. August 2011

EAC extraction logfile from 11. February 2014, 14:55

Pat Metheny Unity Group / Kin

Used drive : HL-DT-STDVDRAM GH20NS10 Adapter: 2 ID: 1

Read mode : Secure
Utilize accurate stream : Yes
Defeat audio cache : Yes
Make use of C2 pointers : No

Read offset correction : 667
Overread into Lead-In and Lead-Out : No
Fill up missing offset samples with silence : Yes
Delete leading and trailing silent blocks : No
Null samples used in CRC calculations : Yes
Used interface : Native Win32 interface for Win NT & 2000
Gap handling : Appended to previous track

Used output format : User Defined Encoder
Selected bitrate : 1024 kBit/s
Quality : High
Add ID3 tag : No
Command line compressor : C:\Program Files\Exact Audio Copy\Flac\flac.exe
Additional command line options : -8 -V -T "ARTIST=%artist%" -T "TITLE=%title%" -T "ALBUM=%albumtitle%" -T "DATE=%year%" -T "TRACKNUMBER=%tracknr%" -T "TOTALTRACKS=%numtracks%" -T "GENRE=%genre%" -T "ALBUMARTIST=%albumartist%" -T "ALBUM ARTIST=%albumartist%" -T "COMMENT=EAC Secure Mode, Test & Copy, AccurateRip, FLAC -8" %source%


TOC of the extracted CD

Track | Start | Length | Start sector | End sector
––––––––––––––––––––––––––––-
1 | 0:00.00 | 15:15.55 | 0 | 68679
2 | 15:15.55 | 11:56.49 | 68680 | 122428
3 | 27:12.29 | 2:14.50 | 122429 | 132528
4 | 29:27.04 | 10:14.31 | 132529 | 178609
5 | 39:41.35 | 11:06.08 | 178610 | 228567
6 | 50:47.43 | 7:51.24 | 228568 | 263916
7 | 58:38.67 | 0:38.23 | 263917 | 266789
8 | 59:17.15 | 5:33.11 | 266790 | 291775
9 | 64:50.26 | 5:27.11 | 291776 | 316311


Track 1

Filename D:\Pat Metheny Unity Group - Kin (2014) [FLAC]\01 - On Day One.wav

Pre-gap length 0:00:02.00

Peak level 100.0 %
Extraction speed 5.8 X
Track quality 100.0 %
Test CRC DB3D0D2E
Copy CRC DB3D0D2E
Track not present in AccurateRip database
Copy OK

Track 2

Filename D:\Pat Metheny Unity Group - Kin (2014) [FLAC]\02 - Rise Up.wav

Peak level 99.2 %
Extraction speed 7.0 X
Track quality 100.0 %
Test CRC 30127D42
Copy CRC 30127D42
Track not present in AccurateRip database
Copy OK

Track 3

Filename D:\Pat Metheny Unity Group - Kin (2014) [FLAC]\03 - Adagia.wav

Peak level 72.6 %
Extraction speed 5.9 X
Track quality 100.0 %
Test CRC 77234CFE
Copy CRC 77234CFE
Track not present in AccurateRip database
Copy OK

Track 4

Filename D:\Pat Metheny Unity Group - Kin (2014) [FLAC]\04 - Sign Of The Season.wav

Peak level 97.1 %
Extraction speed 7.8 X
Track quality 100.0 %
Test CRC 9C8B2B94
Copy CRC 9C8B2B94
Track not present in AccurateRip database
Copy OK

Track 5

Filename D:\Pat Metheny Unity Group - Kin (2014) [FLAC]\05 - Kin.wav

Peak level 100.0 %
Extraction speed 8.5 X
Track quality 100.0 %
Test CRC 61FC7C55
Copy CRC 61FC7C55
Track not present in AccurateRip database
Copy OK

Track 6

Filename D:\Pat Metheny Unity Group - Kin (2014) [FLAC]\06 - Born.wav

Peak level 100.0 %
Extraction speed 8.8 X
Track quality 100.0 %
Test CRC 0B21608F
Copy CRC 0B21608F
Track not present in AccurateRip database
Copy OK

Track 7

Filename D:\Pat Metheny Unity Group - Kin (2014) [FLAC]\07 - Genealogy.wav

Peak level 95.5 %
Extraction speed 4.8 X
Track quality 100.0 %
Test CRC 8D049564
Copy CRC 8D049564
Track not present in AccurateRip database
Copy OK

Track 8

Filename D:\Pat Metheny Unity Group - Kin (2014) [FLAC]\08 - We Go On.wav

Peak level 100.0 %
Extraction speed 8.8 X
Track quality 100.0 %
Test CRC C762EA93
Copy CRC C762EA93
Track not present in AccurateRip database
Copy OK

Track 9

Filename D:\Pat Metheny Unity Group - Kin (2014) [FLAC]\09 - Kqu.wav

Peak level 96.4 %
Extraction speed 9.2 X
Track quality 100.0 %
Test CRC C9BDEDD9
Copy CRC C9BDEDD9
Track not present in AccurateRip database
Copy OK


None of the tracks are present in the AccurateRip database

No errors occurred

End of status report

==== Log checksum C1950025D1762BDD1AFC7E4EBC1F0FC4C2C4501D4A282B4C1C125F85DC2C0486 ====


––––––––––––––––––––––––––––––––––––––––
Analyzed: Pat Metheny Unity Group / Kin
––––––––––––––––––––––––––––––––––––––––

DR Peak RMS Duration Track
––––––––––––––––––––––––––––––––––––––––
DR9 0.00 dB -11.49 dB 15:16 01-On Day One
DR9 -0.07 dB -12.57 dB 11:57 02-Rise Up
DR12 -2.78 dB -19.47 dB 2:15 03-Adagia
DR8 -0.25 dB -12.95 dB 10:14 04-Sign Of The Season
DR8 0.00 dB -11.64 dB 11:06 05-Kin
DR11 0.00 dB -15.89 dB 7:51 06-Born
DR13 -0.40 dB -14.91 dB 0:38 07-Genealogy
DR8 0.00 dB -10.84 dB 5:33 08-We Go On
DR9 -0.32 dB -12.71 dB 5:27 09-Kqu
––––––––––––––––––––––––––––––––––––––––

Number of tracks: 9
Official DR value: DR10

Samplerate: 44100 Hz
Channels: 2
Bits per sample: 16
Bitrate: 876 kbps
Codec: FLAC
================================================================================

Pat Metheny Unity Group - Kin (<-->) (2014) {Nonesuch}
Pat Metheny Unity Group - Kin (<-->) (2014) {Nonesuch}
Pat Metheny Unity Group - Kin (<-->) (2014) {Nonesuch}