Subcategories

Patrick Peire, Collegium Instrumentale Brugense, Brugensis Capella - Gluck: Orphée et Eurydice - 1859 Berlioz Revision (1993)

Posted By: ArlegZ
Patrick Peire, Collegium Instrumentale Brugense, Brugensis Capella - Gluck: Orphée et Eurydice - 1859 Berlioz Revision (1993)

Patrick Peire, Collegium Instrumentale Brugense, Brugensis Capella - Gluck: Orphée et Eurydice - 1859 Berlioz Revision (1993)
EAC | FLAC | Image (Cue & Log) ~ 667 Mb | Total time: 44:21+53:38 | Scans included
Classical | Label: Forlane | UCD 16720/21 | Recorded: 1992

The most striking feature of this disc is the casting of Ewa Podles as Orphée. A Polish contralto with a tessitura that comfortably spans three octaves, she has a voice that is resonant and rich in its low notes but rises easily to tackle coloratura – a combination which she uses to dazzling effect on ‘Amour viens rende à mon âme’, the last, show-stopping aria of Act I. But its remarkable versatility apart, Podles’s distinctive sound is something of a curiosity – dark, slightly guttural and peculiarly tubular. The comprimarios, Raphaëlle Farman as Eurydice and Marie-Noëlle de Callataÿ as Amour, produce a clean, attractive sound. Sung in French, this recording uses Berlioz’s 1859 revision. This was the first attempt made at a compromise between Gluck’s two versions, for Vienna in 1762 and for Paris in 1774. Berlioz, with the help of Saint-Saëns, suppressed the Third Act ballets and the familiar final chorus, replacing the latter with ‘Le Dieu de Paphos’ (from Gluck’s last opera Echo et Narcisse) – an altogether weaker ending. In the quest for authenticity, the conductor, Patrick Peire, has also decided to adhere to annotations made to a score used at the 1859 version’s premiere regarding phrasing and dynamics, which may account for the eccentric speeds. That apart, the Collegium Instrumentale Brugense plays beautifully, and the sound is full and bright.
–Claire Wrathall

Performer:
Orphée - Ewa Podles, alto
Eurydice - Raphaëlle Farman, soprano
L'Amour - Marie-Noëlle de Callataÿ, soprano
Capella Brugensis
Collegium Instrumentale Brugense
Conductor - Patrick Peire

Track List:
CD1:
01. Ouverture
02. Acte I. Chœur: Ah! dans ce bois tranquille
03. Récit: Vos plaintes, vos regrets
04. Pantomime
05. Chœur: Ah! dans ce bois lugubre et sombre
06. Récit: Éloignez-vous
07. Ritournelle
08. Récit: Eurydice! Eurydice! Ombre chère
09. Air: Object de mon amour
10. Récit: Eurydice! Eurydice! de ce doux nom
11. Air: Accablé de regrets
12. Récit: Divinités de l'Achéron
13. Air: Si les doux accords de ta lyre
14. Récit: Dieux, je la reverrais
15. Air: Soumis au silence
16. Récit: Qu'entends-je
17. Air: Amour, viens rendre à mon âme
18. Acte II. Danse des furies
19. Chœur: Quel est l'audacieux
20. Pantomime des furies
21. Chœur: Quel est l'audacieux
22. Air avec Chœur: Laissez-vous toucher par mes pleurs
23. Chœur: Qui t'amène en ces lieux
24. Air: Ah! la flamme qui me dévore
25. Chœur: Par quels puissants accords
26. Air: La tendresse qui me presse
27. Chœur: Quels chants doux et touchants
CD2:
01. Ballet des ombres heureuses
02. Ballet
03. Air avec Chœur: Cet asile aimable et tranquille
04. Air: Quel nouveau ciel pare ces lieux
05. Chœur: Viens dans ce séjour paisible
06. Ballet
07. Récit avec Chœur: O vous ombres que j' implore
08. Chœur: Près du tendre objet
09. Acte III. Récit: Viens Eurydice, suis-moi
10. Duo: Viens suis un époux que t'adore
11. Récit: Mais d'où vient qu'il persiste
12. Air et Duo: Fortune ennemie, quelle barbarie
13. Récit: Quelle épreuve cruelle
14. Air: J'ai perdu mon Eurydice
15. Récit: Ah! puisse ma douleur
16. Récit: Arrête, Orphée
17. Trio: Tendre Amour
18. Chœur Final: Le dieu de Paphos


Exact Audio Copy V1.3 from 2. September 2016

EAC extraction logfile from 20. January 2020, 17:56

Patrick Peire / Gluck - Orphée et Eurydice CD1

Used drive : HL-DT-STBD-RE WH16NS40 Adapter: 1 ID: 0

Read mode : Secure
Utilize accurate stream : Yes
Defeat audio cache : Yes
Make use of C2 pointers : No

Read offset correction : 6
Overread into Lead-In and Lead-Out : No
Fill up missing offset samples with silence : Yes
Delete leading and trailing silent blocks : No
Null samples used in CRC calculations : Yes
Used interface : Native Win32 interface for Win NT & 2000

Used output format : User Defined Encoder
Selected bitrate : 1024 kBit/s
Quality : High
Add ID3 tag : No
Command line compressor : C:\Program Files (x86)\Exact Audio Copy\FLAC\FLAC.EXE
Additional command line options : -6 -V -T "ARTIST=%artist%" -T "TITLE=%title%" -T "ALBUM=%albumtitle%" -T "DATE=%year%" -T "TRACKNUMBER=%tracknr%" -T "GENRE=%genre%" -T "COMMENT=%comment%" -T "BAND=%albuminterpret%" -T "ALBUMARTIST=%albuminterpret%" -T "COMPOSER=%composer%" %haslyrics%–tag-from-file=LYRICS="%lyricsfile%"%haslyrics% -T "DISCNUMBER=%cdnumber%" -T "TOTALDISCS=%totalcds%" -T "TOTALTRACKS=%numtracks%" %hascover%–picture="%coverfile%"%hascover% %source% -o %dest%


TOC of the extracted CD

Track | Start | Length | Start sector | End sector
––––––––––––––––––––––––––––-
1 | 0:00.32 | 3:10.00 | 32 | 14281
2 | 3:10.32 | 3:14.30 | 14282 | 28861
3 | 6:24.62 | 0:39.55 | 28862 | 31841
4 | 7:04.42 | 1:53.30 | 31842 | 40346
5 | 8:57.72 | 1:41.35 | 40347 | 47956
6 | 10:39.32 | 0:29.15 | 47957 | 50146
7 | 11:08.47 | 1:08.33 | 50147 | 55279
8 | 12:17.05 | 1:44.40 | 55280 | 63119
9 | 14:01.45 | 1:33.00 | 63120 | 70094
10 | 15:34.45 | 1:24.22 | 70095 | 76416
11 | 16:58.67 | 1:35.13 | 76417 | 83554
12 | 18:34.05 | 1:43.00 | 83555 | 91279
13 | 20:17.05 | 1:13.45 | 91280 | 96799
14 | 21:30.50 | 0:56.35 | 96800 | 101034
15 | 22:27.10 | 2:10.02 | 101035 | 110786
16 | 24:37.12 | 2:05.40 | 110787 | 120201
17 | 26:42.52 | 5:34.25 | 120202 | 145276
18 | 32:17.02 | 1:23.20 | 145277 | 151521
19 | 33:40.22 | 0:25.23 | 151522 | 153419
20 | 34:05.45 | 0:38.65 | 153420 | 156334
21 | 34:44.35 | 1:00.55 | 156335 | 160889
22 | 35:45.15 | 2:58.20 | 160890 | 174259
23 | 38:43.35 | 0:58.10 | 174260 | 178619
24 | 39:41.45 | 0:40.35 | 178620 | 181654
25 | 40:22.05 | 1:03.72 | 181655 | 186451
26 | 41:26.02 | 0:33.55 | 186452 | 188981
27 | 41:59.57 | 2:21.28 | 188982 | 199584


Range status and errors

Selected range

Filename C:\Users\Grant\Desktop\Patrick Peire - Gluck - Orphée et Eurydice CD1.wav

Peak level 99.4 %
Extraction speed 7.0 X
Range quality 100.0 %
Test CRC A499060D
Copy CRC A499060D
Copy OK

No errors occurred


AccurateRip summary

Track 1 accurately ripped (confidence 1) [BEBA8FB0] (AR v1)
Track 2 accurately ripped (confidence 1) [60758AD6] (AR v1)
Track 3 accurately ripped (confidence 1) [020CC47E] (AR v1)
Track 4 accurately ripped (confidence 1) [C58E9EF4] (AR v1)
Track 5 accurately ripped (confidence 1) [5B0DDAF1] (AR v1)
Track 6 accurately ripped (confidence 1) [1C953A6C] (AR v1)
Track 7 accurately ripped (confidence 1) [9F130D88] (AR v1)
Track 8 accurately ripped (confidence 1) [77E8E2E6] (AR v1)
Track 9 accurately ripped (confidence 1) [FD900BB8] (AR v1)
Track 10 accurately ripped (confidence 1) [244718B2] (AR v1)
Track 11 accurately ripped (confidence 1) [6C86BB35] (AR v1)
Track 12 accurately ripped (confidence 1) [5BEEBAEF] (AR v1)
Track 13 accurately ripped (confidence 1) [1E319F61] (AR v1)
Track 14 accurately ripped (confidence 1) [FD37E6B0] (AR v1)
Track 15 accurately ripped (confidence 1) [311F4D5D] (AR v1)
Track 16 accurately ripped (confidence 1) [FFBA93DC] (AR v1)
Track 17 accurately ripped (confidence 1) [58B0B161] (AR v1)
Track 18 accurately ripped (confidence 1) [86A43118] (AR v1)
Track 19 accurately ripped (confidence 1) [C54D0BA7] (AR v1)
Track 20 accurately ripped (confidence 1) [CB71F174] (AR v1)
Track 21 accurately ripped (confidence 1) [600DC51B] (AR v1)
Track 22 accurately ripped (confidence 1) [48750F5C] (AR v1)
Track 23 accurately ripped (confidence 1) [9ECD1209] (AR v1)
Track 24 accurately ripped (confidence 1) [4DB09A3F] (AR v1)
Track 25 accurately ripped (confidence 1) [AA9DA01F] (AR v1)
Track 26 accurately ripped (confidence 1) [C88924B2] (AR v1)
Track 27 accurately ripped (confidence 1) [501DB149] (AR v1)

All tracks accurately ripped

End of status report

–– CUETools DB Plugin V2.1.6

[CTDB TOCID: Xq_cC802XvYFPWkPspcEEaKj084-] found
Submit result: Xq_cC802XvYFPWkPspcEEaKj084- has been confirmed
Track | CTDB Status
1 | (1/1) Accurately ripped
2 | (1/1) Accurately ripped
3 | (1/1) Accurately ripped
4 | (1/1) Accurately ripped
5 | (1/1) Accurately ripped
6 | (1/1) Accurately ripped
7 | (1/1) Accurately ripped
8 | (1/1) Accurately ripped
9 | (1/1) Accurately ripped
10 | (1/1) Accurately ripped
11 | (1/1) Accurately ripped
12 | (1/1) Accurately ripped
13 | (1/1) Accurately ripped
14 | (1/1) Accurately ripped
15 | (1/1) Accurately ripped
16 | (1/1) Accurately ripped
17 | (1/1) Accurately ripped
18 | (1/1) Accurately ripped
19 | (1/1) Accurately ripped
20 | (1/1) Accurately ripped
21 | (1/1) Accurately ripped
22 | (1/1) Accurately ripped
23 | (1/1) Accurately ripped
24 | (1/1) Accurately ripped
25 | (1/1) Accurately ripped
26 | (1/1) Accurately ripped
27 | (1/1) Accurately ripped


==== Log checksum F703FB3699A132C61E911571368A3A44BA8278DC018DA0E8CB806286E4E566E4 ====


Exact Audio Copy V1.3 from 2. September 2016

EAC extraction logfile from 20. January 2020, 18:18

Patrick Peire / Gluck - Orphée et Eurydice CD2

Used drive : HL-DT-STBD-RE WH16NS40 Adapter: 1 ID: 0

Read mode : Secure
Utilize accurate stream : Yes
Defeat audio cache : Yes
Make use of C2 pointers : No

Read offset correction : 6
Overread into Lead-In and Lead-Out : No
Fill up missing offset samples with silence : Yes
Delete leading and trailing silent blocks : No
Null samples used in CRC calculations : Yes
Used interface : Native Win32 interface for Win NT & 2000

Used output format : User Defined Encoder
Selected bitrate : 1024 kBit/s
Quality : High
Add ID3 tag : No
Command line compressor : C:\Program Files (x86)\Exact Audio Copy\FLAC\FLAC.EXE
Additional command line options : -6 -V -T "ARTIST=%artist%" -T "TITLE=%title%" -T "ALBUM=%albumtitle%" -T "DATE=%year%" -T "TRACKNUMBER=%tracknr%" -T "GENRE=%genre%" -T "COMMENT=%comment%" -T "BAND=%albuminterpret%" -T "ALBUMARTIST=%albuminterpret%" -T "COMPOSER=%composer%" %haslyrics%–tag-from-file=LYRICS="%lyricsfile%"%haslyrics% -T "DISCNUMBER=%cdnumber%" -T "TOTALDISCS=%totalcds%" -T "TOTALTRACKS=%numtracks%" %hascover%–picture="%coverfile%"%hascover% %source% -o %dest%


TOC of the extracted CD

Track | Start | Length | Start sector | End sector
––––––––––––––––––––––––––––-
1 | 0:00.32 | 6:31.40 | 32 | 29396
2 | 6:31.72 | 2:08.53 | 29397 | 39049
3 | 8:40.50 | 2:58.12 | 39050 | 52411
4 | 11:38.62 | 4:16.03 | 52412 | 71614
5 | 15:54.65 | 2:17.37 | 71615 | 81926
6 | 18:12.27 | 1:50.03 | 81927 | 90179
7 | 20:02.30 | 0:43.12 | 90180 | 93416
8 | 20:45.42 | 2:46.38 | 93417 | 105904
9 | 23:32.05 | 4:19.55 | 105905 | 125384
10 | 27:51.60 | 3:40.15 | 125385 | 141899
11 | 31:32.00 | 1:47.42 | 141900 | 149966
12 | 33:19.42 | 3:15.50 | 149967 | 164641
13 | 36:35.17 | 3:15.50 | 164642 | 179316
14 | 39:50.67 | 4:59.00 | 179317 | 201741
15 | 44:49.67 | 1:21.28 | 201742 | 207844
16 | 46:11.20 | 1:36.57 | 207845 | 215101
17 | 47:48.02 | 3:10.30 | 215102 | 229381
18 | 50:58.32 | 2:39.45 | 229382 | 241351


Range status and errors

Selected range

Filename C:\Users\Grant\Desktop\Patrick Peire - Gluck - Orphée et Eurydice CD2.wav

Peak level 99.6 %
Extraction speed 7.3 X
Range quality 100.0 %
Test CRC A26BE847
Copy CRC A26BE847
Copy OK

No errors occurred


AccurateRip summary

Track 1 accurately ripped (confidence 1) [E5270A99] (AR v1)
Track 2 accurately ripped (confidence 1) [3D8CA495] (AR v1)
Track 3 accurately ripped (confidence 1) [49EF11AB] (AR v1)
Track 4 accurately ripped (confidence 1) [C8CF6E82] (AR v1)
Track 5 accurately ripped (confidence 1) [28134D0C] (AR v1)
Track 6 accurately ripped (confidence 1) [45A60380] (AR v1)
Track 7 accurately ripped (confidence 1) [8FD6436E] (AR v1)
Track 8 accurately ripped (confidence 1) [2C3604D7] (AR v1)
Track 9 accurately ripped (confidence 1) [121A2A89] (AR v1)
Track 10 accurately ripped (confidence 1) [453C08BA] (AR v1)
Track 11 accurately ripped (confidence 1) [5F4F5F6C] (AR v1)
Track 12 accurately ripped (confidence 1) [422B4753] (AR v1)
Track 13 accurately ripped (confidence 1) [0160188A] (AR v1)
Track 14 accurately ripped (confidence 1) [03400A90] (AR v1)
Track 15 accurately ripped (confidence 1) [FC699714] (AR v1)
Track 16 accurately ripped (confidence 1) [BC8D2083] (AR v1)
Track 17 accurately ripped (confidence 1) [DC15A887] (AR v1)
Track 18 accurately ripped (confidence 1) [6574CE0A] (AR v1)

All tracks accurately ripped

End of status report

–– CUETools DB Plugin V2.1.6

[CTDB TOCID: V3JGLv25OTgJXpcZYfzdlDMjnX0-] found
Submit result: V3JGLv25OTgJXpcZYfzdlDMjnX0- has been confirmed
Track | CTDB Status
1 | (1/1) Accurately ripped
2 | (1/1) Accurately ripped
3 | (1/1) Accurately ripped
4 | (1/1) Accurately ripped
5 | (1/1) Accurately ripped
6 | (1/1) Accurately ripped
7 | (1/1) Accurately ripped
8 | (1/1) Accurately ripped
9 | (1/1) Accurately ripped
10 | (1/1) Accurately ripped
11 | (1/1) Accurately ripped
12 | (1/1) Accurately ripped
13 | (1/1) Accurately ripped
14 | (1/1) Accurately ripped
15 | (1/1) Accurately ripped
16 | (1/1) Accurately ripped
17 | (1/1) Accurately ripped
18 | (1/1) Accurately ripped


==== Log checksum B11D81C33B2C9D0CA7D1C23BBFF813373268FF28AB26AC75A01D95B6F3053A86 ====

Patrick Peire, Collegium Instrumentale Brugense, Brugensis Capella - Gluck: Orphée et Eurydice - 1859 Berlioz Revision (1993)

Thanks to the original releaser