Subcategories
Tags
Language
Tags

Paul Bley - Ramblin' (1995)

Posted By: v3122
Paul Bley - Ramblin' (1995)

Paul Bley - Ramblin' (1995)
EAC | Flac(Image) + Cue + Log & MP3 CBR 320Kbps
Red Records, RR 123 117.2 | ~ 240 or 103 Mb | Artwork(jpg) -> 16 Mb
Avant-Garde, Free Jazz

~ Recorded at RCA Studios in Rome on July 1st, 1966. ~

Ramblin' comes from an adventurous period in Paul Bley's career, at a time when he was associated with some of the more avant-garde elements. His playing often takes an attractively aggressive approach, which he tempered in later years. There is his characteristic emphasis on the beauty of the single note. The gorgeous, lush sounds on "Albert's Love Theme," for example, or the slow, beautiful, expressive take on Annette Peacock's "Touching" are filled with enormous depth. Carla Bley's "Ida Lupina" is given a sophisticated treatment that emphasizes tonal bliss. As with all Bley recordings, this one takes close listening to appreciate its subtleties, but the joy is well worth the effort. Barry Altschul is spectacular on drums, with effective polyrhythmic support, and bassist Mark Levinson fits perfectly into the mix.
Paul Bley - Ramblin' (1995):

Paul Bley - Ramblin' (1995)

Tracklist:

01. Both 9:25
02. Albert's Love Theme 9:18
03. Ida Lupino 3:25
04. Mazatalon 7:30
05. Touching 7:26
06. Ramblin' 5:44

Paul Bley - piano
Mark Levinson - double bass
Barry Altschul - drums


Exact Audio Copy V0.99 prebeta 5 from 4. May 2009

EAC extraction logfile from 17. December 2010, 20:25

Paul Bley / Ramblin'

Used drive : TSSTcorpCDDVDW SH-S222A Adapter: 1 ID: 0

Read mode : Secure
Utilize accurate stream : Yes
Defeat audio cache : Yes
Make use of C2 pointers : No

Read offset correction : 6
Overread into Lead-In and Lead-Out : No
Fill up missing offset samples with silence : Yes
Delete leading and trailing silent blocks : No
Null samples used in CRC calculations : Yes
Used interface : Native Win32 interface for Win NT & 2000
Gap handling : Appended to previous track

Used output format : User Defined Encoder
Selected bitrate : 768 kBit/s
Quality : High
Add ID3 tag : No
Command line compressor : C:\tool\Audio\Exact Audio Copy\FLAC\FLAC.EXE
Additional command line options : -V -8 -T "ARTIST=%a" -T "TITLE=%t" -T "ALBUM=%g" -T "TRACKNUMBER=%n" -T "GENRE=%m" %s


TOC of the extracted CD

Track | Start | Length | Start sector | End sector
––––––––––––––––––––––––––––-
1 | 0:00.33 | 9:39.00 | 33 | 43457
2 | 9:39.33 | 9:29.00 | 43458 | 86132
3 | 19:08.33 | 3:32.50 | 86133 | 102082
4 | 22:41.08 | 7:38.37 | 102083 | 136469
5 | 30:19.45 | 7:36.18 | 136470 | 170687
6 | 37:55.63 | 5:51.45 | 170688 | 197057


Track 1

Filename C:\Paul Bley - Ramblin'\01 - Both.wav

Pre-gap length 0:00:02.33

Peak level 83.8 %
Track quality 100.0 %
Test CRC 8B83FF45
Copy CRC 8B83FF45
Track not present in AccurateRip database
Copy OK

Track 2

Filename C:\Paul Bley - Ramblin'\02 - Albert's Love Theme.wav

Peak level 83.7 %
Track quality 100.0 %
Test CRC 2A230717
Copy CRC 2A230717
Track not present in AccurateRip database
Copy OK

Track 3

Filename C:\Paul Bley - Ramblin'\03 - Ida Lupino.wav

Peak level 83.7 %
Track quality 100.0 %
Test CRC DCA2CC70
Copy CRC DCA2CC70
Track not present in AccurateRip database
Copy OK

Track 4

Filename C:\Paul Bley - Ramblin'\04 - Mazatalon.wav

Peak level 83.7 %
Track quality 100.0 %
Test CRC 750ED348
Copy CRC 750ED348
Track not present in AccurateRip database
Copy OK

Track 5

Filename C:\Paul Bley - Ramblin'\05 - Touching.wav

Peak level 68.9 %
Track quality 99.9 %
Test CRC 556B5553
Copy CRC 556B5553
Track not present in AccurateRip database
Copy OK

Track 6

Filename C:\Paul Bley - Ramblin'\06 - Ramblin'.wav

Peak level 83.8 %
Track quality 100.0 %
Test CRC 614A0660
Copy CRC 614A0660
Track not present in AccurateRip database
Copy OK


None of the tracks are present in the AccurateRip database

No errors occurred

End of status report


[CUETools log; Date: 20.10.2019 13:04:43; Version: 2.1.4]
Pregap length 00:00:33.
[AccurateRip ID: 000b3ab3-003a964c-420a4306] found.
Track [ CRC | V2 ] Status
01 [dae94e37|f14391c9] (0+4/4) Accurately ripped
02 [27228ac4|16f7eba9] (0+4/4) Accurately ripped
03 [659b2fa8|d067cd9a] (0+4/4) Accurately ripped
04 [d2b295e8|30477565] (0+4/4) Accurately ripped
05 [c7a72237|7a66e97b] (0+4/4) Accurately ripped
06 [a535ea25|8571e2e1] (0+4/4) Accurately ripped

Track Peak [ CRC32 ] [W/O NULL] [ LOG ]
– 83,8 [F6DB5FAA] [4FF4CE28]
01 83,8 [8B83FF45] [00D5EBDF] CRC32
02 83,7 [2A230717] [EBFB31E4] CRC32
03 83,7 [DCA2CC70] [EB0ABB63] CRC32
04 83,7 [750ED348] [34EBE81E] CRC32
05 68,9 [556B5553] [9243D287] CRC32
06 83,8 [614A0660] [83C4086C] CRC32


Paul Bley - Ramblin' (1995)

All thanks go to szakall

Paul Bley in my Blog

Download Paul Bley - Ramblin' (1995):