Paul Lewis - Beethoven: Complete Piano Sonatas (2009) (10 CD Set)

Posted By: murena
Paul Lewis - Beethoven: Complete Piano Sonatas (2009) (10 CD Set)

Paul Lewis - Beethoven: Complete Piano Sonatas (2009) (10 CD Set)
EAC Rip | FLAC (Tracks+.cue, log) | 10 CDs, 10:54:04 min | 1,91 Gb | Scans => 60 mb
Genre: Classical / Label: Harmonia Mundi

Paul Lewis performed all the Beethoven piano sonatas on tour in the USA and Europe between the 2005 and 2007 seasons, in parallel with his complete recording of the cycle for Harmonia Mundi. His interpretation of the Lizst sonata was distinguished by the prestigious Edison Award, while his recording of the complete Beethoven sonatas received two Gramophone Awards in 2008 (Recording of the year and Best Instrumental Recording).

Tracklist:
Disc: 1
1. Piano Sonata No. 16 in G major, Op. 31/1: 1. Allegro vivace
2. Piano Sonata No. 16 in G major, Op. 31/1: 2. Adagio grazioso
3. Piano Sonata No. 16 in G major, Op. 31/1: 3. Rondo. Allegretto
4. Piano Sonata No. 17 in D minor ('Tempest'), Op. 31/2: 1. Largo. Allegro
5. Piano Sonata No. 17 in D minor ('Tempest'), Op. 31/2: 2. Adagio
6. Piano Sonata No. 17 in D minor ('Tempest'), Op. 31/2: 3. Allegretto
7. Piano Sonata No. 18 in E flat major ('Hunt'), Op. 31/3: 1. Allegro
8. Piano Sonata No. 18 in E flat major ('Hunt'), Op. 31/3: 2. Scherzo. Allegretto vivace
9. Piano Sonata No. 18 in E flat major ('Hunt'), Op. 31/3: 3. Menuetto. Moderato e grazioso
10. Piano Sonata No. 18 in E flat major ('Hunt'), Op. 31/3: 4. Presto con fuoco

Exact Audio Copy V0.99 prebeta 5 from 4. May 2009

EAC extraction logfile from 8. March 2010, 18:21

Beethoven L. / Sonates 16, 17 et 18 by Paul Lewis

Used drive : TOSHIBA DVDW/HD SD-L802B Adapter: 1 ID: 0

Read mode : Secure
Utilize accurate stream : Yes
Defeat audio cache : Yes
Make use of C2 pointers : No

Read offset correction : 696
Overread into Lead-In and Lead-Out : No
Fill up missing offset samples with silence : Yes
Delete leading and trailing silent blocks : No
Null samples used in CRC calculations : No
Used interface : Native Win32 interface for Win NT & 2000
Gap handling : Appended to previous track

Used output format : Internal WAV Routines
Sample format : 44.100 Hz; 16 Bit; Stereo


TOC of the extracted CD

Track | Start | Length | Start sector | End sector
––––––––––––––––––––––––––––-
1 | 0:00.00 | 7:09.34 | 0 | 32208
2 | 7:09.34 | 10:08.26 | 32209 | 77834
3 | 17:17.60 | 7:29.39 | 77835 | 111548
4 | 24:47.24 | 8:53.54 | 111549 | 151577
5 | 33:41.03 | 8:23.32 | 151578 | 189334
6 | 42:04.35 | 7:23.40 | 189335 | 222599
7 | 49:28.00 | 9:13.73 | 222600 | 264147
8 | 58:41.73 | 5:27.11 | 264148 | 288683
9 | 64:09.09 | 4:26.06 | 288684 | 308639
10 | 68:35.15 | 5:19.71 | 308640 | 332635


Track 1

Filename F:\Beethoven - Piano Sonatas [Lewis] 10CD\cd1\01 - Sonata no.16 I Allegro vivace.wav

Pre-gap length 0:00:02.00

Peak level 99.8 %
Track quality 100.0 %
Copy CRC C33087AD
Accurately ripped (confidence 18) [EF9500C8]
Copy OK

Track 2

Filename F:\Beethoven - Piano Sonatas [Lewis] 10CD\cd1\02 - Sonata no.16 II Adagio grazioso.wav

Peak level 53.9 %
Track quality 99.9 %
Copy CRC F8604535
Accurately ripped (confidence 19) [D984D144]
Copy OK

Track 3

Filename F:\Beethoven - Piano Sonatas [Lewis] 10CD\cd1\03 - Sonata no.16 III Rondo. Allegretto.wav

Peak level 83.5 %
Track quality 100.0 %
Copy CRC A912E95A
Accurately ripped (confidence 19) [7ECA9314]
Copy OK

Track 4

Filename F:\Beethoven - Piano Sonatas [Lewis] 10CD\cd1\04 - Sonata no.17 I Largo.wav

Peak level 88.1 %
Track quality 100.0 %
Copy CRC CFD288DF
Accurately ripped (confidence 19) [D616ED93]
Copy OK

Track 5

Filename F:\Beethoven - Piano Sonatas [Lewis] 10CD\cd1\05 - Sonata no.17 II Adagio.wav

Peak level 48.3 %
Track quality 100.0 %
Copy CRC 528BED05
Accurately ripped (confidence 19) [6D59DB20]
Copy OK

Track 6

Filename F:\Beethoven - Piano Sonatas [Lewis] 10CD\cd1\06 - Sonata no.17 III Allegretto.wav

Peak level 71.7 %
Track quality 100.0 %
Copy CRC 28C6C814
Accurately ripped (confidence 19) [01B96FA9]
Copy OK

Track 7

Filename F:\Beethoven - Piano Sonatas [Lewis] 10CD\cd1\07 - Sonata no.18 I Allegro.wav

Peak level 66.4 %
Track quality 100.0 %
Copy CRC 5F8A9725
Accurately ripped (confidence 20) [887CC723]
Copy OK

Track 8

Filename F:\Beethoven - Piano Sonatas [Lewis] 10CD\cd1\08 - Sonata no.18 II Scherzo. Allegretto vivace.wav

Peak level 96.0 %
Track quality 100.0 %
Copy CRC 0EF22F60
Accurately ripped (confidence 20) [0F37511F]
Copy OK

Track 9

Filename F:\Beethoven - Piano Sonatas [Lewis] 10CD\cd1\09 - Sonata no.18 III Menuetto. Moderato e grazioso.wav

Peak level 86.2 %
Track quality 100.0 %
Copy CRC 9497B6C2
Accurately ripped (confidence 20) [1A94829A]
Copy OK

Track 10

Filename F:\Beethoven - Piano Sonatas [Lewis] 10CD\cd1\10 - Sonata no.18 IV Presto con fuoco.wav

Peak level 99.8 %
Track quality 100.0 %
Copy CRC 0054D365
Accurately ripped (confidence 20) [8E3B93ED]
Copy OK


All tracks accurately ripped

No errors occurred

End of status report


Disc: 2
1. Piano Sonata No. 8 in C minor ('Pathétique'), Op. 13: 1. Grave - Allegro di molto e con brio
2. Piano Sonata No. 8 in C minor ('Pathétique'), Op. 13: 2. Andante cantabile
3. Piano Sonata No. 8 in C minor ('Pathétique'), Op. 13: 3. Rondo. Allegro
4. Piano Sonata No. 11 in B flat major, Op. 22: 1. Allegro con brio
5. Piano Sonata No. 11 in B flat major, Op. 22: 2. Adagio con molto espressione
6. Piano Sonata No. 11 in B flat major, Op. 22: 3. Tempo di Menuetto
7. Piano Sonata No. 11 in B flat major, Op. 22: 4. Rondo. Allegretto
8. Piano Sonata No. 28 in A major, Op. 101: 1. Allegretto ma non troppo. Etwas lebhaft und mit der innigsten Empfindung
9. Piano Sonata No. 28 in A major, Op. 101: 2. Vivace alla marcia. Lebhaft
10. Piano Sonata No. 28 in A major, Op. 101: 3. Adagio ma non troppo con affetto. Langsam und sehnsuchtsvolle / 4. Allegro ma non troppo.

Exact Audio Copy V0.99 prebeta 5 from 4. May 2009

EAC extraction logfile from 8. March 2010, 21:55

Paul Lewis / Beethoven n.2 Paul Lewis

Used drive : TOSHIBA DVDW/HD SD-L802B Adapter: 1 ID: 0

Read mode : Secure
Utilize accurate stream : Yes
Defeat audio cache : Yes
Make use of C2 pointers : No

Read offset correction : 696
Overread into Lead-In and Lead-Out : No
Fill up missing offset samples with silence : Yes
Delete leading and trailing silent blocks : No
Null samples used in CRC calculations : No
Used interface : Native Win32 interface for Win NT & 2000
Gap handling : Appended to previous track

Used output format : Internal WAV Routines
Sample format : 44.100 Hz; 16 Bit; Stereo


TOC of the extracted CD

Track | Start | Length | Start sector | End sector
––––––––––––––––––––––––––––-
1 | 0:00.00 | 9:48.04 | 0 | 44103
2 | 9:48.04 | 5:23.02 | 44104 | 68330
3 | 15:11.06 | 5:21.16 | 68331 | 92421
4 | 20:32.22 | 7:39.43 | 92422 | 126889
5 | 28:11.65 | 7:18.48 | 126890 | 159787
6 | 35:30.38 | 3:25.15 | 159788 | 175177
7 | 38:55.53 | 6:51.60 | 175178 | 206062
8 | 45:47.38 | 4:03.36 | 206063 | 224323
9 | 49:50.74 | 6:41.69 | 224324 | 254467
10 | 56:32.68 | 11:26.47 | 254468 | 305964


Track 1

Filename F:\Beethoven - Piano Sonatas [Lewis] 10CD\cd2\01 - 1. Beethoven. Sonate n°8 'Pathйtique'. I. Grave - Allegro di molto e con brio. Paul Lewis.wav

Pre-gap length 0:00:02.00

Peak level 97.2 %
Track quality 99.9 %
Copy CRC 73A32ED0
Accurately ripped (confidence 21) [8386B3A6]
Copy OK

Track 2

Filename F:\Beethoven - Piano Sonatas [Lewis] 10CD\cd2\02 - 2. Beethoven. Sonate n°8 'Pathйtique'. II. Andante cantabile. Paul Lewis.wav

Peak level 50.5 %
Track quality 100.0 %
Copy CRC 91E8E4EA
Accurately ripped (confidence 21) [212BB3B5]
Copy OK

Track 3

Filename F:\Beethoven - Piano Sonatas [Lewis] 10CD\cd2\03 - 3. Beethoven. Sonate n°8 'Pathйtique'. III. Rondo. Allegro. Paul Lewis.wav

Peak level 79.0 %
Track quality 100.0 %
Copy CRC FC8A4C16
Accurately ripped (confidence 20) [6C6E6290]
Copy OK

Track 4

Filename F:\Beethoven - Piano Sonatas [Lewis] 10CD\cd2\04 - 4. Beethoven. Sonate n°11. I. Allegro con brio. Paul Lewis.wav

Peak level 95.3 %
Track quality 99.9 %
Copy CRC 59D81202
Accurately ripped (confidence 20) [62B3D59A]
Copy OK

Track 5

Filename F:\Beethoven - Piano Sonatas [Lewis] 10CD\cd2\05 - 5. Beethoven. Sonate n°11. II. Adagio con molto espressione. Paul Lewis.wav

Peak level 56.4 %
Track quality 99.9 %
Copy CRC 98363821
Accurately ripped (confidence 21) [4FA9595C]
Copy OK

Track 6

Filename F:\Beethoven - Piano Sonatas [Lewis] 10CD\cd2\06 - 6. Beethoven. Sonate n°11. III. Tempo di Menuetto. Paul Lewis.wav

Peak level 68.6 %
Track quality 99.9 %
Copy CRC 4ADCC47C
Accurately ripped (confidence 20) [E1CFB5CC]
Copy OK

Track 7

Filename F:\Beethoven - Piano Sonatas [Lewis] 10CD\cd2\07 - 7. Beethoven. Sonate n°11. IV. Rondo. Allegretto. Paul Lewis.wav

Peak level 80.5 %
Track quality 100.0 %
Copy CRC B0DEEAF6
Accurately ripped (confidence 20) [34BD503D]
Copy OK

Track 8

Filename F:\Beethoven - Piano Sonatas [Lewis] 10CD\cd2\08 - 8. Beethoven. Sonate n°28. I. Allegretto ma non troppo. Paul Lewis.wav

Peak level 59.7 %
Track quality 100.0 %
Copy CRC 729C61F5
Accurately ripped (confidence 21) [449239BD]
Copy OK

Track 9

Filename F:\Beethoven - Piano Sonatas [Lewis] 10CD\cd2\09 - 9. Beethoven. Sonate n°28. II. Vivace alla marcia.. Paul Lewis.wav

Peak level 99.8 %
Track quality 100.0 %
Copy CRC 5D0DE2EA
Accurately ripped (confidence 20) [8F0B4705]
Copy OK

Track 10

Filename F:\Beethoven - Piano Sonatas [Lewis] 10CD\cd2\10 - 10. Beethoven. Sonate n°28. III. Adagio ma non troppo con affetto - IV. Allegro ma non troppo. Paul Lewis.wav

Peak level 97.5 %
Track quality 100.0 %
Copy CRC 75E1FF34
Accurately ripped (confidence 21) [5214B734]
Copy OK


All tracks accurately ripped

No errors occurred

End of status report


Disc: 3
1. Piano Sonata No. 9 in E major, Op. 14/1: 1. Allegro
2. Piano Sonata No. 9 in E major, Op. 14/1: 2. Allegretto
3. Piano Sonata No. 9 in E major, Op. 14/1: 3. Rondo. Allegro comodo
4. Piano Sonata No. 10 in G major, Op. 14/2: 1. Allegro
5. Piano Sonata No. 10 in G major, Op. 14/2: 2. Andante
6. Piano Sonata No. 10 in G major, Op. 14/2: 3. Scherzo. Allegro assai
7. Piano Sonata No. 24 in F sharp major ('A Thérèse'), Op. 78: 1. Allegro ma non troppo
8. Piano Sonata No. 24 in F sharp major ('A Thérèse'), Op. 78: 2. Allegro vivace
9. Piano Sonata No. 21 in C major ('Waldstein'), Op. 53: 1. Allegro con brio
10. Piano Sonata No. 21 in C major ('Waldstein'), Op. 53: 2. Introduzione. Adagio molto
11. Piano Sonata No. 21 in C major ('Waldstein'), Op. 53: 3. Rondo. Allegretto moderato

Exact Audio Copy V0.99 prebeta 5 from 4. May 2009

EAC extraction logfile from 8. March 2010, 23:04

Paul Lewis / Beethoven cd3 Paul Lewis

Used drive : TOSHIBA DVDW/HD SD-L802B Adapter: 1 ID: 0

Read mode : Secure
Utilize accurate stream : Yes
Defeat audio cache : Yes
Make use of C2 pointers : No

Read offset correction : 696
Overread into Lead-In and Lead-Out : No
Fill up missing offset samples with silence : Yes
Delete leading and trailing silent blocks : No
Null samples used in CRC calculations : No
Used interface : Native Win32 interface for Win NT & 2000
Gap handling : Appended to previous track

Used output format : Internal WAV Routines
Sample format : 44.100 Hz; 16 Bit; Stereo


TOC of the extracted CD

Track | Start | Length | Start sector | End sector
––––––––––––––––––––––––––––-
1 | 0:00.00 | 7:03.74 | 0 | 31798
2 | 7:03.74 | 3:26.12 | 31799 | 47260
3 | 10:30.11 | 3:39.15 | 47261 | 63700
4 | 14:09.26 | 7:50.41 | 63701 | 98991
5 | 21:59.67 | 5:06.53 | 98992 | 121994
6 | 27:06.45 | 4:08.61 | 121995 | 140655
7 | 31:15.31 | 7:19.38 | 140656 | 173618
8 | 38:34.69 | 3:10.03 | 173619 | 187871
9 | 41:44.72 | 11:27.74 | 187872 | 239470
10 | 53:12.71 | 4:35.58 | 239471 | 260153
11 | 57:48.54 | 10:52.26 | 260154 | 309079


Track 1

Filename F:\Beethoven - Piano Sonatas [Lewis] 10CD\cd3\01 - 1. Beethoven. Sonate n°9. I. Allegro. Paul Lewis.wav

Pre-gap length 0:00:02.00

Peak level 62.4 %
Track quality 100.0 %
Copy CRC 7B2476A9
Accurately ripped (confidence 19) [C7E5ECDF]
Copy OK

Track 2

Filename F:\Beethoven - Piano Sonatas [Lewis] 10CD\cd3\02 - 2. Beethoven. Sonate n°9. II. Allegretto. Paul Lewis.wav

Peak level 45.4 %
Track quality 100.0 %
Copy CRC 47490051
Accurately ripped (confidence 19) [1F93D7B6]
Copy OK

Track 3

Filename F:\Beethoven - Piano Sonatas [Lewis] 10CD\cd3\03 - 3. Beethoven. Sonate n°9. III. Rondo. Allegro commodo. Paul Lewis.wav

Peak level 58.0 %
Track quality 100.0 %
Copy CRC D535E804
Accurately ripped (confidence 19) [990CB765]
Copy OK

Track 4

Filename F:\Beethoven - Piano Sonatas [Lewis] 10CD\cd3\04 - 4. Beethoven. Sonate n°10. I. Allegro. Paul Lewis.wav

Peak level 54.1 %
Track quality 99.9 %
Copy CRC C4AE8F0C
Accurately ripped (confidence 19) [1208D1D9]
Copy OK

Track 5

Filename F:\Beethoven - Piano Sonatas [Lewis] 10CD\cd3\05 - 5. Beethoven. Sonate n°10. II. Andante. Paul Lewis.wav

Peak level 97.5 %
Track quality 100.0 %
Copy CRC AE4C4613
Accurately ripped (confidence 19) [D189E97D]
Copy OK

Track 6

Filename F:\Beethoven - Piano Sonatas [Lewis] 10CD\cd3\06 - 6. Beethoven. Sonate n°10. III. Scherzo. Allegro assai. Paul Lewis.wav

Peak level 71.8 %
Track quality 100.0 %
Copy CRC 27D0FC69
Accurately ripped (confidence 19) [48D4B500]
Copy OK

Track 7

Filename F:\Beethoven - Piano Sonatas [Lewis] 10CD\cd3\07 - 7. Beethoven. Sonate n°24. I. Allegro ma non troppo. Paul Lewis.wav

Peak level 71.5 %
Track quality 100.0 %
Copy CRC 73D5DF34
Accurately ripped (confidence 19) [9B4F03A1]
Copy OK

Track 8

Filename F:\Beethoven - Piano Sonatas [Lewis] 10CD\cd3\08 - 8. Beethoven. Sonate n°24. II. Allegro vivace. Paul Lewis.wav

Peak level 80.8 %
Track quality 100.0 %
Copy CRC 54864F49
Accurately ripped (confidence 19) [26FE6C9E]
Copy OK

Track 9

Filename F:\Beethoven - Piano Sonatas [Lewis] 10CD\cd3\09 - 9. Beethoven. Sonate n°21 'Waldstein'. I. Allegro con brio. Paul Lewis.wav

Peak level 99.1 %
Track quality 100.0 %
Copy CRC E4CB5DDC
Accurately ripped (confidence 19) [9A6A57BE]
Copy OK

Track 10

Filename F:\Beethoven - Piano Sonatas [Lewis] 10CD\cd3\10 - 10. Beethoven. Sonate n°21 'Waldstein'. II. Introduzione. Paul Lewis.wav

Peak level 35.1 %
Track quality 100.0 %
Copy CRC 908C10C1
Accurately ripped (confidence 20) [DE003B66]
Copy OK

Track 11

Filename F:\Beethoven - Piano Sonatas [Lewis] 10CD\cd3\11 - 11. Beethoven. Sonate n°21 'Waldstein'. III. Rondo. Paul Lewis.wav

Peak level 97.6 %
Track quality 100.0 %
Copy CRC 8263A9AC
Accurately ripped (confidence 20) [2792A67A]
Copy OK


All tracks accurately ripped

No errors occurred

End of status report


Disc: 4
1. Piano Sonata No. 27 in E minor, Op. 90: 1. Allegro. Mit Lebhaftigkeit und durchaus mit Empfindung und Ausdruck
2. Piano Sonata No. 27 in E minor, Op. 90: 2. Rondo. Nicht zu geschwind und sehr singbar vorzutragen
3. Piano Sonata No. 25 in G major ('Cuckoo'), Op. 79: 1. Presto alla tedesca
4. Piano Sonata No. 25 in G major ('Cuckoo'), Op. 79: 2. Andante
5. Piano Sonata No. 25 in G major ('Cuckoo'), Op. 79: 3. Vivace
6. Piano Sonata No. 29 in B flat major ('Hammerklavier'), Op. 106: 1. Allegro
7. Piano Sonata No. 29 in B flat major ('Hammerklavier'), Op. 106: 2. Scherzo. Assai vivace
8. Piano Sonata No. 29 in B flat major ('Hammerklavier'), Op. 106: 3. Adagio sostenuto. Appassionato e con molto sentimento
9. Piano Sonata No. 29 in B flat major ('Hammerklavier'), Op. 106: 4. Largo - Allegro risoluto

Exact Audio Copy V0.99 prebeta 5 from 4. May 2009

EAC extraction logfile from 9. March 2010, 11:52

Paul Lewis / Beethoven cd4 Paul Lewis

Used drive : TOSHIBA DVDW/HD SD-L802B Adapter: 1 ID: 0

Read mode : Secure
Utilize accurate stream : Yes
Defeat audio cache : Yes
Make use of C2 pointers : No

Read offset correction : 696
Overread into Lead-In and Lead-Out : No
Fill up missing offset samples with silence : Yes
Delete leading and trailing silent blocks : No
Null samples used in CRC calculations : No
Used interface : Native Win32 interface for Win NT & 2000
Gap handling : Appended to previous track

Used output format : Internal WAV Routines
Sample format : 44.100 Hz; 16 Bit; Stereo


TOC of the extracted CD

Track | Start | Length | Start sector | End sector
––––––––––––––––––––––––––––-
1 | 0:00.00 | 5:46.71 | 0 | 26020
2 | 5:46.71 | 8:27.07 | 26021 | 64052
3 | 14:14.03 | 5:30.48 | 64053 | 88850
4 | 19:44.51 | 2:33.33 | 88851 | 100358
5 | 22:18.09 | 2:10.37 | 100359 | 110145
6 | 24:28.46 | 11:39.17 | 110146 | 162587
7 | 36:07.63 | 2:48.07 | 162588 | 175194
8 | 38:55.70 | 18:31.16 | 175195 | 258535
9 | 57:27.11 | 12:52.73 | 258536 | 316508


Track 1

Filename F:\Beethoven - Piano Sonatas [Lewis] 10CD\cd4\01 - 1. Beethoven. Sonate n°27. I. Allegro. Paul Lewis.wav

Pre-gap length 0:00:02.00

Peak level 95.2 %
Track quality 100.0 %
Copy CRC 07179785
Accurately ripped (confidence 18) [821347CA]
Copy OK

Track 2

Filename F:\Beethoven - Piano Sonatas [Lewis] 10CD\cd4\02 - 2. D%ethoven. Sonate n°27. II. Rondo. Paul Lewis.wav

Peak level 62.4 %
Track quality 100.0 %
Copy CRC D384D048
Accurately ripped (confidence 18) [A7929ADA]
Copy OK

Track 3

Filename F:\Beethoven - Piano Sonatas [Lewis] 10CD\cd4\03 - 3. Beethoven. Sonate n°25 'Alla tedesca'. I. Presto alla tedesca. Paul Lewis.wav

Peak level 77.9 %
Track quality 100.0 %
Copy CRC 0814AA5E
Accurately ripped (confidence 18) [6F3B0448]
Copy OK

Track 4

Filename F:\Beethoven - Piano Sonatas [Lewis] 10CD\cd4\04 - 4. Beethoven. Sonate n°25 'Alla tedesca'. II. Andante. Paul Lewis.wav

Peak level 40.2 %
Track quality 100.0 %
Copy CRC DE44212A
Accurately ripped (confidence 18) [9A38034B]
Copy OK

Track 5

Filename F:\Beethoven - Piano Sonatas [Lewis] 10CD\cd4\05 - 5. Beethoven. Sonate n°25 'Alla tedesca'. III. Vivace. Paul Lewis.wav

Peak level 72.0 %
Track quality 99.9 %
Copy CRC F41EBA66
Accurately ripped (confidence 18) [7EFA59E3]
Copy OK

Track 6

Filename F:\Beethoven - Piano Sonatas [Lewis] 10CD\cd4\06 - 6. Beethoven. Sonate n°29 'Hammerklavier'. I. Allegro. Paul Lewis.wav

Peak level 98.0 %
Track quality 100.0 %
Copy CRC 61741D37
Accurately ripped (confidence 18) [E479EE22]
Copy OK

Track 7

Filename F:\Beethoven - Piano Sonatas [Lewis] 10CD\cd4\07 - 7. Beethoven. Sonate n°29 'Hammerklavier'. II. Scherzo. Paul Lewis.wav

Peak level 78.6 %
Track quality 100.0 %
Copy CRC E19494AA
Accurately ripped (confidence 18) [CBBA5635]
Copy OK

Track 8

Filename F:\Beethoven - Piano Sonatas [Lewis] 10CD\cd4\08 - 8. Beethoven. Sonate n°29 'Hammerklavier'. III. Adagio sostenuto. Paul Lewis.wav

Peak level 73.8 %
Track quality 100.0 %
Copy CRC 61B4B266
Accurately ripped (confidence 18) [D321502B]
Copy OK

Track 9

Filename F:\Beethoven - Piano Sonatas [Lewis] 10CD\cd4\09 - 9. Beethoven. Sonate n°29 'Hammerklavier'. IV. Largo - Allegro risoluto. Paul Lewis.wav

Peak level 96.8 %
Track quality 100.0 %
Copy CRC 426720A9
Accurately ripped (confidence 19) [1CEE445D]
Copy OK


All tracks accurately ripped

No errors occurred

End of status report


Disc: 5
1. Piano Sonata No. 1 in F minor, Op. 2/1: 1. Allegro
2. Piano Sonata No. 1 in F minor, Op. 2/1: 2. Adagio
3. Piano Sonata No. 1 in F minor, Op. 2/1: 3. Menuetto. Allegretto
4. Piano Sonata No. 1 in F minor, Op. 2/1: 4. Prestissimo
5. Piano Sonata No. 2 in A major, Op. 2/2: 1. Allegro vivace
6. Piano Sonata No. 2 in A major, Op. 2/2: 2. Largo appassionato
7. Piano Sonata No. 2 in A major, Op. 2/2: 3. Scherzo. Allegretto
8. Piano Sonata No. 2 in A major, Op. 2/2: 4. Rondo. Grazioso
9. Piano Sonata No. 3 in C major, Op. 2/3: 1. Allegro con brio
10. Piano Sonata No. 3 in C major, Op. 2/3: 2. Adagio
11. Piano Sonata No. 3 in C major, Op. 2/3: 3. Scherzo
12. Piano Sonata No. 3 in C major, Op. 2/3: 4. Allegro assai

Exact Audio Copy V0.99 prebeta 5 from 4. May 2009

EAC extraction logfile from 9. March 2010, 13:08

Paul Lewis / Beethoven - Piano Sonatas cd5

Used drive : TOSHIBA DVDW/HD SD-L802B Adapter: 1 ID: 0

Read mode : Secure
Utilize accurate stream : Yes
Defeat audio cache : Yes
Make use of C2 pointers : No

Read offset correction : 696
Overread into Lead-In and Lead-Out : No
Fill up missing offset samples with silence : Yes
Delete leading and trailing silent blocks : No
Null samples used in CRC calculations : No
Used interface : Native Win32 interface for Win NT & 2000
Gap handling : Appended to previous track

Used output format : Internal WAV Routines
Sample format : 44.100 Hz; 16 Bit; Stereo


TOC of the extracted CD

Track | Start | Length | Start sector | End sector
––––––––––––––––––––––––––––-
1 | 0:00.00 | 4:31.44 | 0 | 20368
2 | 4:31.44 | 4:39.21 | 20369 | 41314
3 | 9:10.65 | 3:31.32 | 41315 | 57171
4 | 12:42.22 | 5:22.12 | 57172 | 81333
5 | 18:04.34 | 7:28.03 | 81334 | 114936
6 | 25:32.37 | 6:09.02 | 114937 | 142613
7 | 31:41.39 | 3:48.48 | 142614 | 159761
8 | 35:30.12 | 7:11.49 | 159762 | 192135
9 | 42:41.61 | 10:36.00 | 192136 | 239835
10 | 53:17.61 | 7:13.71 | 239836 | 272381
11 | 60:31.57 | 3:22.64 | 272382 | 287595
12 | 63:54.46 | 5:36.03 | 287596 | 312798


Track 1

Filename F:\Beethoven - Piano Sonatas [Lewis] 10CD\cd5\01 - Sonata No. 1 in F minor I Allegro.wav

Pre-gap length 0:00:02.00

Peak level 99.8 %
Track quality 100.0 %
Copy CRC 005BF20C
Accurately ripped (confidence 14) [0039BB58]
Copy OK

Track 2

Filename F:\Beethoven - Piano Sonatas [Lewis] 10CD\cd5\02 - Sonata No. 1 in F minor II Adagio.wav

Peak level 48.3 %
Track quality 99.9 %
Copy CRC AB318224
Accurately ripped (confidence 14) [3EC38074]
Copy OK

Track 3

Filename F:\Beethoven - Piano Sonatas [Lewis] 10CD\cd5\03 - Sonata No. 1 in F minor III Menuetto, Allegretto.wav

Peak level 85.4 %
Track quality 100.0 %
Copy CRC 648C7740
Accurately ripped (confidence 14) [BDDD66BA]
Copy OK

Track 4

Filename F:\Beethoven - Piano Sonatas [Lewis] 10CD\cd5\04 - Sonata No. 1 in F minor IV Prestissimo.wav

Peak level 99.8 %
Track quality 100.0 %
Copy CRC 5E512BDD
Accurately ripped (confidence 14) [17593877]
Copy OK

Track 5

Filename F:\Beethoven - Piano Sonatas [Lewis] 10CD\cd5\05 - Sonata No. 2 in A major I Allegro vivace.wav

Peak level 99.8 %
Track quality 100.0 %
Copy CRC 4C88E6F1
Accurately ripped (confidence 14) [B76136B1]
Copy OK

Track 6

Filename F:\Beethoven - Piano Sonatas [Lewis] 10CD\cd5\06 - Sonata No. 2 in A major II Largo appassionato.wav

Peak level 99.5 %
Track quality 100.0 %
Copy CRC 594B8383
Accurately ripped (confidence 14) [E187A7A6]
Copy OK

Track 7

Filename F:\Beethoven - Piano Sonatas [Lewis] 10CD\cd5\07 - Sonata No. 2 in A major III Scherzo, Allegretto.wav

Peak level 91.6 %
Track quality 100.0 %
Copy CRC 676EA60C
Accurately ripped (confidence 14) [EB5EB4EF]
Copy OK

Track 8

Filename F:\Beethoven - Piano Sonatas [Lewis] 10CD\cd5\08 - Sonata No. 2 in A major IV Rondo, Grazioso.wav

Peak level 99.8 %
Track quality 100.0 %
Copy CRC B441AF8A
Accurately ripped (confidence 14) [FCA441F9]
Copy OK

Track 9

Filename F:\Beethoven - Piano Sonatas [Lewis] 10CD\cd5\09 - Sonata No. 3 in C major I Allegro con brio.wav

Peak level 99.8 %
Track quality 100.0 %
Copy CRC 54AFCA39
Accurately ripped (confidence 14) [1BB4918A]
Copy OK

Track 10

Filename F:\Beethoven - Piano Sonatas [Lewis] 10CD\cd5\10 - Sonata No. 3 in C major II Adagio.wav

Peak level 70.5 %
Track quality 100.0 %
Copy CRC 7B489256
Accurately ripped (confidence 14) [96F24FD3]
Copy OK

Track 11

Filename F:\Beethoven - Piano Sonatas [Lewis] 10CD\cd5\11 - Sonata No. 3 in C major III Scherzo.wav

Peak level 78.7 %
Track quality 99.9 %
Copy CRC DEFC67BD
Accurately ripped (confidence 14) [7C2D627F]
Copy OK

Track 12

Filename F:\Beethoven - Piano Sonatas [Lewis] 10CD\cd5\12 - Sonata No. 3 in C major IV Allegro assai.wav

Peak level 99.8 %
Track quality 99.9 %
Copy CRC 5CCDD7ED
Accurately ripped (confidence 14) [0ABD9080]
Copy OK


All tracks accurately ripped

No errors occurred

End of status report


Disc: 6
1. Piano Sonata No. 4 in E flat major ('Grand Sonata'), Op. 7: 1. Allegro molto e con brio
2. Piano Sonata No. 4 in E flat major ('Grand Sonata'), Op. 7: 2. Largo con gran espressione
3. Piano Sonata No. 4 in E flat major ('Grand Sonata'), Op. 7: 3. Allegro
4. Piano Sonata No. 4 in E flat major ('Grand Sonata'), Op. 7: 4. Rondo. Poco allegretto e grazioso
5. Piano Sonata No. 22 in F major, Op. 54: 1. In tempo di menuetto
6. Piano Sonata No. 22 in F major, Op. 54: 2. Allegretto
7. Piano Sonata No. 23 in F minor ('Appassionata'), Op. 57: 1. Allegro assai
8. Piano Sonata No. 23 in F minor ('Appassionata'), Op. 57: 2. Andante con moto
9. Piano Sonata No. 23 in F minor ('Appassionata'), Op. 57: 3. Allegro ma non troppo

Exact Audio Copy V0.99 prebeta 5 from 4. May 2009

EAC extraction logfile from 9. March 2010, 14:14

Paul Lewis / Beethoven - Piano Sonatas cd6

Used drive : TOSHIBA DVDW/HD SD-L802B Adapter: 1 ID: 0

Read mode : Secure
Utilize accurate stream : Yes
Defeat audio cache : Yes
Make use of C2 pointers : No

Read offset correction : 696
Overread into Lead-In and Lead-Out : No
Fill up missing offset samples with silence : Yes
Delete leading and trailing silent blocks : No
Null samples used in CRC calculations : No
Used interface : Native Win32 interface for Win NT & 2000
Gap handling : Appended to previous track

Used output format : Internal WAV Routines
Sample format : 44.100 Hz; 16 Bit; Stereo


TOC of the extracted CD

Track | Start | Length | Start sector | End sector
––––––––––––––––––––––––––––-
1 | 0:00.00 | 8:29.68 | 0 | 38242
2 | 8:29.68 | 8:10.37 | 38243 | 75029
3 | 16:40.30 | 5:30.09 | 75030 | 99788
4 | 22:10.39 | 7:58.30 | 99789 | 135668
5 | 30:08.69 | 6:09.50 | 135669 | 163393
6 | 36:18.44 | 6:38.03 | 163394 | 193246
7 | 42:56.47 | 10:25.08 | 193247 | 240129
8 | 53:21.55 | 5:46.08 | 240130 | 266087
9 | 59:07.63 | 8:38.24 | 266088 | 304961


Track 1

Filename F:\Beethoven - Piano Sonatas [Lewis] 10CD\cd6\01 - Piano Sonata No. 4 in E flat major, Op. 7 - I. Allegro molto e con brio.wav

Pre-gap length 0:00:02.00

Peak level 99.8 %
Track quality 100.0 %
Copy CRC 02BC4185
Accurately ripped (confidence 2) [455598C3]
Copy OK

Track 2

Filename F:\Beethoven - Piano Sonatas [Lewis] 10CD\cd6\02 - Piano Sonata No. 4 in E flat major, Op. 7 - II. Largo con gran espressione.wav

Peak level 75.9 %
Track quality 100.0 %
Copy CRC A0A4DFFE
Accurately ripped (confidence 2) [3849003F]
Copy OK

Track 3

Filename F:\Beethoven - Piano Sonatas [Lewis] 10CD\cd6\03 - Piano Sonata No. 4 in E flat major, Op. 7 - III. Allegro.wav

Peak level 74.5 %
Track quality 100.0 %
Copy CRC B8A6B573
Accurately ripped (confidence 2) [C91EE449]
Copy OK

Track 4

Filename F:\Beethoven - Piano Sonatas [Lewis] 10CD\cd6\04 - Piano Sonata No. 4 in E flat major, Op. 7 - IV. Rondo. Poco allegretto e grazioso.wav

Peak level 86.1 %
Track quality 100.0 %
Copy CRC 9FB210C0
Accurately ripped (confidence 2) [E6F84CBA]
Copy OK

Track 5

Filename F:\Beethoven - Piano Sonatas [Lewis] 10CD\cd6\05 - Piano Sonata No. 22 in F major, Op. 54 - I. In tempo di menuetto.wav

Peak level 99.8 %
Track quality 100.0 %
Copy CRC 91BEAECE
Accurately ripped (confidence 2) [CC9105B5]
Copy OK

Track 6

Filename F:\Beethoven - Piano Sonatas [Lewis] 10CD\cd6\06 - Piano Sonata No. 22 in F major, Op. 54 - II. Allegretto.wav

Peak level 96.7 %
Track quality 100.0 %
Copy CRC 75FA909D
Accurately ripped (confidence 2) [61CEED8F]
Copy OK

Track 7

Filename F:\Beethoven - Piano Sonatas [Lewis] 10CD\cd6\07 - Piano Sonata No. 23 in F minor, Op. 57 - I. Allegro assai.wav

Peak level 99.8 %
Track quality 100.0 %
Copy CRC 3E3D2A91
Accurately ripped (confidence 2) [116BFB71]
Copy OK

Track 8

Filename F:\Beethoven - Piano Sonatas [Lewis] 10CD\cd6\08 - Piano Sonata No. 23 in F minor, Op. 57 - II. Andante con moto.wav

Peak level 99.8 %
Track quality 100.0 %
Copy CRC 24CBA07D
Accurately ripped (confidence 2) [46BEB042]
Copy OK

Track 9

Filename F:\Beethoven - Piano Sonatas [Lewis] 10CD\cd6\09 - Piano Sonata No. 23 in F minor, Op. 57 - III. Allegro ma non troppo.wav

Peak level 99.8 %
Track quality 100.0 %
Copy CRC 6E340B8D
Accurately ripped (confidence 2) [8C8CA74D]
Copy OK


All tracks accurately ripped

No errors occurred

End of status report


Disc: 7
1. Piano Sonata No. 12 in A flat major ('Funeral March'), Op. 26: 1. Andante con variazioni
2. Piano Sonata No. 12 in A flat major ('Funeral March'), Op. 26: 2. Scherzo. Allegro molto
3. Piano Sonata No. 12 in A flat major ('Funeral March'), Op. 26: 3. Marcia funebre 'sulla morte d'un Eroe'
4. Piano Sonata No. 12 in A flat major ('Funeral March'), Op. 26: 4. Allegro
5. Piano Sonata No. 13 in E flat major ('Quasi una fantasia'), Op. 27/1: 1. Andante
6. Piano Sonata No. 13 in E flat major ('Quasi una fantasia'), Op. 27/1: 2. Allegro molto e vivace
7. Piano Sonata No. 13 in E flat major ('Quasi una fantasia'), Op. 27/1: 3. Adagio con espressione
8. Piano Sonata No. 13 in E flat major ('Quasi una fantasia'), Op. 27/1: 4. Finale. Allegro vivace
9. Piano Sonata No. 14 in C sharp minor ('Moonlight'), Op. 27/2: 1. Adagio sostenuto
10. Piano Sonata No. 14 in C sharp minor ('Moonlight'), Op. 27/2: 2. Allegretto
11. Piano Sonata No. 14 in C sharp minor ('Moonlight'), Op. 27/2: 3. Presto agitato

Exact Audio Copy V0.99 prebeta 5 from 4. May 2009

EAC extraction logfile from 8. March 2010, 17:05

Paul Lewis / Beethoven - Complete Piano Sonatas Vol.3 CD3

Used drive : TOSHIBA DVDW/HD SD-L802B Adapter: 1 ID: 0

Read mode : Secure
Utilize accurate stream : Yes
Defeat audio cache : Yes
Make use of C2 pointers : No

Read offset correction : 696
Overread into Lead-In and Lead-Out : No
Fill up missing offset samples with silence : Yes
Delete leading and trailing silent blocks : No
Null samples used in CRC calculations : No
Used interface : Native Win32 interface for Win NT & 2000
Gap handling : Appended to previous track

Used output format : Internal WAV Routines
Sample format : 44.100 Hz; 16 Bit; Stereo


TOC of the extracted CD

Track | Start | Length | Start sector | End sector
––––––––––––––––––––––––––––-
1 | 0:00.00 | 8:45.46 | 0 | 39420
2 | 8:45.46 | 3:12.34 | 39421 | 53854
3 | 11:58.05 | 5:41.10 | 53855 | 79439
4 | 17:39.15 | 3:38.68 | 79440 | 95857
5 | 21:18.08 | 4:55.09 | 95858 | 117991
6 | 26:13.17 | 2:09.42 | 117992 | 127708
7 | 28:22.59 | 2:42.00 | 127709 | 139858
8 | 31:04.59 | 5:54.38 | 139859 | 166446
9 | 36:59.22 | 5:15.32 | 166447 | 190103
10 | 42:14.54 | 2:19.32 | 190104 | 200560
11 | 44:34.11 | 7:38.21 | 200561 | 234931


Track 1

Filename F:\Beethoven - Piano Sonatas [Lewis] 10CD\cd7\01 - Piano Sonata No. 12 'Maria funebre' in A flat major, Op.26 - I. Andante con variazioni.wav

Pre-gap length 0:00:02.00

Peak level 66.8 %
Track quality 100.0 %
Copy CRC 252AA6A0
Accurately ripped (confidence 14) [40EEF847]
Copy OK

Track 2

Filename F:\Beethoven - Piano Sonatas [Lewis] 10CD\cd7\02 - Piano Sonata No. 12 'Maria funebre' in A flat major, Op.26 - II. Scherzo. Allegro molto.wav

Peak level 89.7 %
Track quality 100.0 %
Copy CRC 70EDC5B6
Accurately ripped (confidence 14) [953670B3]
Copy OK

Track 3

Filename F:\Beethoven - Piano Sonatas [Lewis] 10CD\cd7\03 - Piano Sonata No. 12 'Maria funebre' in A flat major, Op.26 - III. Marcia funebre 'sulla morte d'un eroe'.wav

Peak level 99.8 %
Track quality 100.0 %
Copy CRC B2C39CD6
Accurately ripped (confidence 14) [26CE0BA3]
Copy OK

Track 4

Filename F:\Beethoven - Piano Sonatas [Lewis] 10CD\cd7\04 - Piano Sonata No. 12 'Maria funebre' in A flat major, Op.26 - IV. Allegro.wav

Peak level 99.8 %
Track quality 100.0 %
Copy CRC C11D4138
Accurately ripped (confidence 14) [40EC0DD7]
Copy OK

Track 5

Filename F:\Beethoven - Piano Sonatas [Lewis] 10CD\cd7\05 - Piano Sonata No. 13 'Quasi una Fantasia' in E flat major, Op.27 no.1 - I. Andante.wav

Peak level 96.9 %
Track quality 100.0 %
Copy CRC 94FFC283
Accurately ripped (confidence 14) [47CF676C]
Copy OK

Track 6

Filename F:\Beethoven - Piano Sonatas [Lewis] 10CD\cd7\06 - Piano Sonata No. 13 'Quasi una Fantasia' in E flat major, Op.27 no.1 - II. Allegro molto e vivace.wav

Peak level 99.8 %
Track quality 100.0 %
Copy CRC 22D7AACC
Accurately ripped (confidence 14) [0F3141AA]
Copy OK

Track 7

Filename F:\Beethoven - Piano Sonatas [Lewis] 10CD\cd7\07 - Piano Sonata No. 13 'Quasi una Fantasia' in E flat major, Op.27 no.1 - III. Adagio con espressione.wav

Peak level 61.5 %
Track quality 100.0 %
Copy CRC 7AD543A7
Accurately ripped (confidence 14) [045A1FE9]
Copy OK

Track 8

Filename F:\Beethoven - Piano Sonatas [Lewis] 10CD\cd7\08 - Piano Sonata No. 13 'Quasi una Fantasia' in E flat major, Op.27 no.1 - IV. Finale. Allegro vivace.wav

Peak level 99.8 %
Track quality 100.0 %
Copy CRC 4A2148B3
Accurately ripped (confidence 14) [9500A8B1]
Copy OK

Track 9

Filename F:\Beethoven - Piano Sonatas [Lewis] 10CD\cd7\09 - Piano Sonata No. 14 'Moonlight' in C sharp minor, Op.27 no.2 - I. Adagio sostenuto.wav

Peak level 28.2 %
Track quality 99.9 %
Copy CRC 54D9B8D7
Accurately ripped (confidence 13) [B63F4B82]
Copy OK

Track 10

Filename F:\Beethoven - Piano Sonatas [Lewis] 10CD\cd7\10 - Piano Sonata No. 14 'Moonlight' in C sharp minor, Op.27 no.2 - II. Allegretto.wav

Peak level 61.9 %
Track quality 100.0 %
Copy CRC 40CA0AC2
Accurately ripped (confidence 14) [3F760773]
Copy OK

Track 11

Filename F:\Beethoven - Piano Sonatas [Lewis] 10CD\cd7\11 - Piano Sonata No. 14 'Moonlight' in C sharp minor, Op.27 no.2 - III. Presto agitato.wav

Peak level 99.8 %
Track quality 99.9 %
Copy CRC 81454FD1
Accurately ripped (confidence 14) [31370343]
Copy OK


All tracks accurately ripped

No errors occurred

End of status report


Disc: 8
1. Piano Sonata No. 5 in C minor, Op. 10/1: 1. Allegro molto e con brio
2. Piano Sonata No. 5 in C minor, Op. 10/1: 2. Adagio molto
3. Piano Sonata No. 5 in C minor, Op. 10/1: 3. Finale. Prestissimo
4. Piano Sonata No. 6 in F major, Op. 10/2: 1. Allegro
5. Piano Sonata No. 6 in F major, Op. 10/2: 2. Allegretto
6. Piano Sonata No. 6 in F major, Op. 10/2: 3. Finale. Presto
7. Piano Sonata No. 7 in D major, Op. 10/3: 1. Presto
8. Piano Sonata No. 7 in D major, Op. 10/3: 2. Largo e mesto
9. Piano Sonata No. 7 in D major, Op. 10/3: 3. Menuetto. Allegro
10. Piano Sonata No. 7 in D major, Op. 10/3: 4. Rondo. Allegro

Exact Audio Copy V0.99 prebeta 5 from 4. May 2009

EAC extraction logfile from 9. March 2010, 17:08

Paul Lewis (piano) / Beethoven - Piano Sonatas cd8

Used drive : TOSHIBA DVDW/HD SD-L802B Adapter: 1 ID: 0

Read mode : Secure
Utilize accurate stream : Yes
Defeat audio cache : Yes
Make use of C2 pointers : No

Read offset correction : 696
Overread into Lead-In and Lead-Out : No
Fill up missing offset samples with silence : Yes
Delete leading and trailing silent blocks : No
Null samples used in CRC calculations : No
Used interface : Native Win32 interface for Win NT & 2000
Gap handling : Not detected, thus appended to previous track

Used output format : Internal WAV Routines
Sample format : 44.100 Hz; 16 Bit; Stereo


TOC of the extracted CD

Track | Start | Length | Start sector | End sector
––––––––––––––––––––––––––––-
1 | 0:00.00 | 5:58.29 | 0 | 26878
2 | 5:58.29 | 9:25.13 | 26879 | 69266
3 | 15:23.42 | 4:32.61 | 69267 | 89727
4 | 19:56.28 | 5:38.53 | 89728 | 115130
5 | 25:35.06 | 4:37.29 | 115131 | 135934
6 | 30:12.35 | 4:05.11 | 135935 | 154320
7 | 34:17.46 | 6:57.43 | 154321 | 185638
8 | 41:15.14 | 11:04.07 | 185639 | 235445
9 | 52:19.21 | 3:04.06 | 235446 | 249251
10 | 55:23.27 | 4:10.47 | 249252 | 268048


Track 1

Filename F:\Beethoven - Piano Sonatas [Lewis] 10CD\cd8\01 - Beethoven Sonata No.5 in C minor - I. Allegro molto e con brio.wav

Peak level 99.8 %
Track quality 100.0 %
Copy CRC A0DBFE66
Accurately ripped (confidence 21) [D59CB59D]
Copy OK

Track 2

Filename F:\Beethoven - Piano Sonatas [Lewis] 10CD\cd8\02 - Beethoven Sonata No.5 in C minor - II. Adagio molto.wav

Peak level 64.8 %
Track quality 99.9 %
Copy CRC 3F933561
Accurately ripped (confidence 21) [EADB9038]
Copy OK

Track 3

Filename F:\Beethoven - Piano Sonatas [Lewis] 10CD\cd8\03 - Beethoven Sonata No.5 in C minor - III. Finale. Prestissimo.wav

Peak level 99.8 %
Track quality 100.0 %
Copy CRC 6E335C61
Accurately ripped (confidence 20) [B9EDFB59]
Copy OK

Track 4

Filename F:\Beethoven - Piano Sonatas [Lewis] 10CD\cd8\04 - Beethoven Sonata No.6 in F major - I. Allegro.wav

Peak level 96.3 %
Track quality 99.9 %
Copy CRC 6C11F6D7
Accurately ripped (confidence 21) [16CDC2D2]
Copy OK

Track 5

Filename F:\Beethoven - Piano Sonatas [Lewis] 10CD\cd8\05 - Beethoven Sonata No.6 in F major - II. Allegretto.wav

Peak level 91.3 %
Track quality 100.0 %
Copy CRC 617BCD00
Accurately ripped (confidence 21) [668ED6D7]
Copy OK

Track 6

Filename F:\Beethoven - Piano Sonatas [Lewis] 10CD\cd8\06 - Beethoven Sonata No.6 in F major - III. Finale. Presto.wav

Peak level 99.8 %
Track quality 100.0 %
Copy CRC C242A2D9
Accurately ripped (confidence 21) [0AB0A01F]
Copy OK

Track 7

Filename F:\Beethoven - Piano Sonatas [Lewis] 10CD\cd8\07 - Beethoven Sonata No.7 in D major - I. Presto.wav

Peak level 99.8 %
Track quality 100.0 %
Copy CRC 50C2EB93
Accurately ripped (confidence 21) [682688E3]
Copy OK

Track 8

Filename F:\Beethoven - Piano Sonatas [Lewis] 10CD\cd8\08 - Beethoven Sonata No.7 in D major - II. Largo e mesto.wav

Peak level 94.3 %
Track quality 99.9 %
Copy CRC 8FB4B480
Accurately ripped (confidence 21) [BE167D49]
Copy OK

Track 9

Filename F:\Beethoven - Piano Sonatas [Lewis] 10CD\cd8\09 - Beethoven Sonata No.7 in D major - III. Menuetto. Allegro.wav

Peak level 77.3 %
Track quality 100.0 %
Copy CRC 51F7A4B2
Accurately ripped (confidence 21) [9DC09EA7]
Copy OK

Track 10

Filename F:\Beethoven - Piano Sonatas [Lewis] 10CD\cd8\10 - Beethoven Sonata No.7 in D major - IV. Rondo. Allegro.wav

Peak level 96.3 %
Track quality 100.0 %
Copy CRC F513D02F
Accurately ripped (confidence 21) [CF2C89B0]
Copy OK


All tracks accurately ripped

No errors occurred

End of status report


Disc: 9
1. Piano Sonata No. 15 in D major ('Pastoral'), Op. 28: 1. Allegro
2. Piano Sonata No. 15 in D major ('Pastoral'), Op. 28: 2. Andante
3. Piano Sonata No. 15 in D major ('Pastoral'), Op. 28: 3. Scherzo. Allegro vivace
4. Piano Sonata No. 15 in D major ('Pastoral'), Op. 28: 4. Rondo. Allegro ma non troppo
5. Piano Sonata No. 19 in G minor, Op. 49/1: 1. Andante
6. Piano Sonata No. 19 in G minor, Op. 49/1: 2. Rondo. Allegro
7. Piano Sonata No. 20 in G major, Op. 49/2: 1. Allegro ma non troppo
8. Piano Sonata No. 20 in G major, Op. 49/2: 2. Tempo di menuetto
9. Piano Sonata No. 26 in E flat major ('Les Adieux'), Op. 81a: 1. Adagio - Allegro 'Les Adieux'
10. Piano Sonata No. 26 in E flat major ('Les Adieux'), Op. 81a: 2. Andante espressivo 'L'Absence'
11. Piano Sonata No. 26 in E flat major ('Les Adieux'), Op. 81a: 3. Vivacissimamente 'Le Retour'

Exact Audio Copy V0.99 prebeta 5 from 4. May 2009

EAC extraction logfile from 9. March 2010, 18:40

Paul Lewis (piano) / Beethoven - Piano Sonatas cd9

Used drive : TOSHIBA DVDW/HD SD-L802B Adapter: 1 ID: 0

Read mode : Secure
Utilize accurate stream : Yes
Defeat audio cache : Yes
Make use of C2 pointers : No

Read offset correction : 696
Overread into Lead-In and Lead-Out : No
Fill up missing offset samples with silence : Yes
Delete leading and trailing silent blocks : No
Null samples used in CRC calculations : No
Used interface : Native Win32 interface for Win NT & 2000
Gap handling : Appended to previous track

Used output format : Internal WAV Routines
Sample format : 44.100 Hz; 16 Bit; Stereo


TOC of the extracted CD

Track | Start | Length | Start sector | End sector
––––––––––––––––––––––––––––-
1 | 0:00.00 | 10:48.17 | 0 | 48616
2 | 10:48.17 | 7:15.46 | 48617 | 81287
3 | 18:03.63 | 2:33.38 | 81288 | 92800
4 | 20:37.26 | 5:46.15 | 92801 | 118765
5 | 26:23.41 | 4:45.36 | 118766 | 140176
6 | 31:09.02 | 3:46.29 | 140177 | 157155
7 | 34:55.31 | 4:55.25 | 157156 | 179305
8 | 39:50.56 | 3:41.40 | 179306 | 195920
9 | 43:32.21 | 7:24.26 | 195921 | 229246
10 | 50:56.47 | 3:39.23 | 229247 | 245694
11 | 54:35.70 | 5:58.20 | 245695 | 272564


Track 1

Filename F:\Beethoven - Piano Sonatas [Lewis] 10CD\cd9\01 - Beethoven Sonata No.15 'Pastorale' in D major - I. Allegro.wav

Pre-gap length 0:00:02.00

Peak level 99.8 %
Track quality 100.0 %
Copy CRC CBF76D68
Accurately ripped (confidence 21) [AC813CD4]
Copy OK

Track 2

Filename F:\Beethoven - Piano Sonatas [Lewis] 10CD\cd9\02 - Beethoven Sonata No.15 'Pastorale' in D major - II. Andante.wav

Peak level 98.5 %
Track quality 100.0 %
Copy CRC 75E17F61
Accurately ripped (confidence 21) [B01F7B5E]
Copy OK

Track 3

Filename F:\Beethoven - Piano Sonatas [Lewis] 10CD\cd9\03 - Beethoven Sonata No.15 'Pastorale' in D major - III. Scherzo. Allegro vivace.wav

Peak level 90.6 %
Track quality 100.0 %
Copy CRC 9E48512B
Accurately ripped (confidence 21) [69FC0915]
Copy OK

Track 4

Filename F:\Beethoven - Piano Sonatas [Lewis] 10CD\cd9\04 - Beethoven Sonata No.15 'Pastorale' in D major - IV. Rondo. Allegro ma non troppo.wav

Peak level 99.8 %
Track quality 100.0 %
Copy CRC 55ACFE05
Accurately ripped (confidence 21) [748B5796]
Copy OK

Track 5

Filename F:\Beethoven - Piano Sonatas [Lewis] 10CD\cd9\05 - Beethoven Sonata No.19 in G minor - I. Andante.wav

Peak level 57.6 %
Track quality 100.0 %
Copy CRC 4CAE333B
Accurately ripped (confidence 21) [A1AEC932]
Copy OK

Track 6

Filename F:\Beethoven - Piano Sonatas [Lewis] 10CD\cd9\06 - Beethoven Sonata No.19 in G minor - II. Rondo. Allegro.wav

Peak level 99.8 %
Track quality 100.0 %
Copy CRC E37199EF
Accurately ripped (confidence 21) [657C4A48]
Copy OK

Track 7

Filename F:\Beethoven - Piano Sonatas [Lewis] 10CD\cd9\07 - Beethoven Sonata No.20 in G major - I. Allegro ma non troppo.wav

Peak level 74.1 %
Track quality 100.0 %
Copy CRC 823EC8A8
Accurately ripped (confidence 21) [71C9361B]
Copy OK

Track 8

Filename F:\Beethoven - Piano Sonatas [Lewis] 10CD\cd9\08 - Beethoven Sonata No.20 in G major - II. Tempo di menuetto.wav

Peak level 60.0 %
Track quality 100.0 %
Copy CRC 3825C395
Accurately ripped (confidence 21) [7854B0B5]
Copy OK

Track 9

Filename F:\Beethoven - Piano Sonatas [Lewis] 10CD\cd9\09 - Beethoven Sonata No.26 'Les Adieux' in E flat major - I. Adagio - Allegro ('Les Adieux').wav

Peak level 99.8 %
Track quality 100.0 %
Copy CRC AF14E664
Accurately ripped (confidence 21) [5E7C3B9D]
Copy OK

Track 10

Filename F:\Beethoven - Piano Sonatas [Lewis] 10CD\cd9\10 - Beethoven Sonata No.26 'Les Adieux' in E flat major - II. Andante espressivo ('L'Absence').wav

Peak level 83.3 %
Track quality 100.0 %
Copy CRC C7DAE8A4
Accurately ripped (confidence 21) [93080E02]
Copy OK

Track 11

Filename F:\Beethoven - Piano Sonatas [Lewis] 10CD\cd9\11 - Beethoven Sonata No.26 'Les Adieux' in E flat major - II. Vivacissimamente ('Le Retour').wav

Peak level 99.8 %
Track quality 100.0 %
Copy CRC DD29B6E8
Accurately ripped (confidence 21) [8B60F0CA]
Copy OK


All tracks accurately ripped

No errors occurred

End of status report


Disc: 10
1. Piano Sonata No. 30 in E major, Op. 109: 1. Vivace ma non troppo / Adagio espressivo
2. Piano Sonata No. 30 in E major, Op. 109: 2. Prestissimo
3. Piano Sonata No. 30 in E major, Op. 109: 3. Andante. Gesangvoll mit innigster Empfindung, mezza voce
4. Piano Sonata No. 31 in A flat major, Op. 110: 1. Moderato cantabile molto espressivo
5. Piano Sonata No. 31 in A flat major, Op. 110: 2. Allegro molto
6. Piano Sonata No. 31 in A flat major, Op. 110: 3. Adagio ma non troppo - Allegro ma non troppo (Fuga)
7. Piano Sonata No. 32 in C minor, Op. 111: 1. Maestoso - Allegro con brio e appassionato
8. Piano Sonata No. 32 in C minor, Op. 111: 2. Arietta. Adagio molto semplice e cantabile

Exact Audio Copy V0.99 prebeta 5 from 4. May 2009

EAC extraction logfile from 9. March 2010, 22:07

Paul Lewis (piano) / Beethoven - Piano Sonatas cd10

Used drive : TOSHIBA DVDW/HD SD-L802B Adapter: 1 ID: 0

Read mode : Secure
Utilize accurate stream : Yes
Defeat audio cache : Yes
Make use of C2 pointers : No

Read offset correction : 696
Overread into Lead-In and Lead-Out : No
Fill up missing offset samples with silence : Yes
Delete leading and trailing silent blocks : No
Null samples used in CRC calculations : No
Used interface : Native Win32 interface for Win NT & 2000
Gap handling : Appended to previous track

Used output format : Internal WAV Routines
Sample format : 44.100 Hz; 16 Bit; Stereo


TOC of the extracted CD

Track | Start | Length | Start sector | End sector
––––––––––––––––––––––––––––-
1 | 0:00.00 | 3:30.45 | 0 | 15794
2 | 3:30.45 | 2:32.39 | 15795 | 27233
3 | 6:03.09 | 12:03.49 | 27234 | 81507
4 | 18:06.58 | 6:36.18 | 81508 | 111225
5 | 24:43.01 | 2:11.34 | 111226 | 121084
6 | 26:54.35 | 10:23.35 | 121085 | 167844
7 | 37:17.70 | 8:53.51 | 167845 | 207870
8 | 46:11.46 | 18:05.16 | 207871 | 289261


Track 1

Filename F:\Beethoven - Piano Sonatas [Lewis] 10CD\cd10\01 - Beethoven Sonata No.30 in E major - I. vivace ma non troppoЎFAdagio espressivo.wav

Pre-gap length 0:00:02.00

Peak level 86.1 %
Track quality 100.0 %
Copy CRC 610E062D
Accurately ripped (confidence 2) [964C2096]
Copy OK

Track 2

Filename F:\Beethoven - Piano Sonatas [Lewis] 10CD\cd10\02 - Beethoven Sonata No.30 in E major - II. Prestissimo.wav

Peak level 99.8 %
Track quality 100.0 %
Copy CRC 8E6057CD
Accurately ripped (confidence 2) [ACAC180C]
Copy OK

Track 3

Filename F:\Beethoven - Piano Sonatas [Lewis] 10CD\cd10\03 - Beethoven Sonata No.30 in E major - III. Andante. Gesangvoll mit innigster empfindung, mezza voce.wav

Peak level 99.8 %
Track quality 100.0 %
Copy CRC FBB43186
Accurately ripped (confidence 2) [10393985]
Copy OK

Track 4

Filename F:\Beethoven - Piano Sonatas [Lewis] 10CD\cd10\04 - Beethoven Sonata No.31 in A flat major - I. Moderato cantabile molto espressivo.wav

Peak level 68.6 %
Track quality 100.0 %
Copy CRC 52F64418
Accurately ripped (confidence 2) [054D6C42]
Copy OK

Track 5

Filename F:\Beethoven - Piano Sonatas [Lewis] 10CD\cd10\05 - Beethoven Sonata No.31 in A flat major - II. Allegro molto.wav

Peak level 99.8 %
Track quality 100.0 %
Copy CRC 2CE19632
Accurately ripped (confidence 2) [D70C4F15]
Copy OK

Track 6

Filename F:\Beethoven - Piano Sonatas [Lewis] 10CD\cd10\06 - Beethoven Sonata No.31 in A flat major - III. Adagio ma non troppo - Allegro ma non troppo (Fuga).wav

Peak level 99.8 %
Track quality 100.0 %
Copy CRC 6F510A4C
Accurately ripped (confidence 2) [405A7F45]
Copy OK

Track 7

Filename F:\Beethoven - Piano Sonatas [Lewis] 10CD\cd10\07 - Beethoven Sonata No.32 in C minor - I. Maestoso - Allegro con brio ed appassionato.wav

Peak level 99.8 %
Track quality 100.0 %
Copy CRC 2CC5F53D
Accurately ripped (confidence 2) [2C030CBD]
Copy OK

Track 8

Filename F:\Beethoven - Piano Sonatas [Lewis] 10CD\cd10\08 - Beethoven Sonata No.32 in C minor - II. Arietta. Adagio molto semplice e cantabile.wav

Peak level 85.4 %
Track quality 99.9 %
Copy CRC 06BC7569
Accurately ripped (confidence 2) [44937386]
Copy OK


All tracks accurately ripped

No errors occurred

End of status report


Thanks to original ripper.