Tags
Language
Tags
May 2024
Su Mo Tu We Th Fr Sa
28 29 30 1 2 3 4
5 6 7 8 9 10 11
12 13 14 15 16 17 18
19 20 21 22 23 24 25
26 27 28 29 30 31 1

Paul and Linda McCartney - Ram (1971) [DCC 24 KT Gold CD, 1993]

Posted By: gribovar
Paul and Linda McCartney - Ram (1971) [DCC 24 KT Gold CD, 1993]

Paul and Linda McCartney - Ram (1971) [DCC 24 KT Gold CD, 1993]
EAC Rip | FLAC (image+.cue+log) - 272 MB | MP3 CBR 320 kbps (LAME 3.93) - 103 MB | Covers - 71 MB
Genre: Classic Rock, Pop Rock | RAR 3% Rec. | Label: DCC Compact Classics (GZS-1037)

After the breakup, Beatles fans expected major statements from the three chief songwriters in the Fab Four. John and George fulfilled those expectations - Lennon with his lacerating, confessional John Lennon/Plastic Ono Band, Harrison with his triple-LP All Things Must Pass - but Paul McCartney certainly didn't, turning toward the modest charms of McCartney, and then crediting his wife Linda as a full-fledged collaborator on its 1971 follow-up, Ram.
Where McCartney was homemade, sounding deliberately ragged in parts, Ram had a fuller production yet retained that ramshackle feel, sounding as if it were recorded in a shack out back, not far from the farm where the cover photo of Paul holding the ram by the horns was taken. It's filled with songs that feel tossed off, filled with songs that are cheerfully, incessantly melodic; it turns the monumental symphonic sweep of Abbey Road into a cheeky slice of whimsy on the two-part suite "Uncle Albert/Admiral Halsey." All this made Ram an object of scorn and derision upon its release (and for years afterward, in fact), but in retrospect it looks like nothing so much as the first indie pop album, a record that celebrates small pleasures with big melodies, a record that's guileless and unembarrassed to be cutesy. But McCartney never was quite the sap of his reputation, and even here, on possibly his most precious record, there's some ripping rock & roll in the mock-apocalyptic goof "Monkberry Moon Delight," the joyfully noisy "Smile Away," where his feet can be smelled a mile away, and "Eat at Home," a rollicking, winking sex song. All three of these are songs filled with good humor, and their foundation in old-time rock & roll makes it easy to overlook how inventive these productions are, but on the more obviously tuneful and gentle numbers - the ones that are more quintessentially McCartney-esque - it's plain to see how imaginative and gorgeous the arrangements are, especially on the sad, soaring finale, "Back Seat of My Car," but even on its humble opposite, the sweet "Heart of the Country." These songs may not be self-styled major statements, but they are endearing and enduring, as is Ram itself, which seems like a more unique, exquisite pleasure with each passing year.
Tracklist:
01. Too Many People
02. 3 Legs
03. Ram On
04. Dear Boy
05. Uncle Albert - Admiral Halsey
06. Smile Away
07. Heart Of The Country
08. Monkberry Moon Delight
09. Eat At Home
10. Long Haired Lady
11. Ram On
12. The Back Seat Of My Car

Total time: 43:43

Exact Audio Copy V0.99 prebeta 5 from 4. May 2009

Отчёт EAC об извлечении, выполненном 30. января 2011, 19:33

Paul & Linda McCartney / Ram (DCC)

Дисковод: Optiarc DVD RW AD-7240S Adapter: 1 ID: 0

Режим чтения : Достоверность
Использование точного потока : Да
Отключение кэша аудио : Да
Использование указателей C2 : Нет

Коррекция смещения при чтении : 48
Способность читать области Lead-in и Lead-out : Нет
Заполнение пропущенных сэмплов тишиной : Да
Удаление блоков с тишиной в начале и конце : Нет
При вычислениях CRC использовались нулевые сэмплы : Да
Интерфейс : Встроенный Win32-интерфейс для Win NT/2000

Выходной формат : Пользовательский кодировщик
Выбранный битрейт : 768 kBit/s
Качество : Высокий
Добавление ID3-тэга : Нет
Утилита сжатия : C:\Program Files\Exact Audio Copy\FLAC\FLAC.EXE
Дополнительные параметры : -6 -V -T "ARTIST=%a" -T "TITLE=%t" -T "ALBUM=%g" -T "DATE=%y" -T "TRACKNUMBER=%n" -T "GENRE=%m" -T "COMMENT=%e" %s -o %d


TOC извлечённого CD

Трек | Старт | Длительность | Начальный сектор | Конечный сектор
––––––––––––––––––––––––––––––––––-
1 | 0:00.00 | 4:14.60 | 0 | 19109
2 | 4:14.60 | 2:52.03 | 19110 | 32012
3 | 7:06.63 | 2:32.12 | 32013 | 43424
4 | 9:39.00 | 2:16.68 | 43425 | 53692
5 | 11:55.68 | 4:55.00 | 53693 | 75817
6 | 16:50.68 | 3:56.67 | 75818 | 93584
7 | 20:47.60 | 2:27.05 | 93585 | 104614
8 | 23:14.65 | 5:28.00 | 104615 | 129214
9 | 28:42.65 | 3:25.20 | 129215 | 144609
10 | 32:08.10 | 6:05.30 | 144610 | 172014
11 | 38:13.40 | 0:59.43 | 172015 | 176482
12 | 39:13.08 | 4:29.50 | 176483 | 196707


Характеристики диапазона извлечения и сообщения об ошибках

Выбранный диапазон

Имя файла E:\music\Музон\McCartney-Gold\Ram\Paul & Linda McCartney - Ram (DCC).wav

Пиковый уровень 100.0 %
Качество диапазона 100.0 %
CRC теста 4FD4FBC9
CRC копии 4FD4FBC9
Копирование… OK

Ошибок не произошло


AccurateRip: сводка

Трек 1 точное извлечение (доверие 24) [BD04E544]
Трек 2 точное извлечение (доверие 25) [CEE21187]
Трек 3 точное извлечение (доверие 23) [9A0F7203]
Трек 4 точное извлечение (доверие 23) [D9A27212]
Трек 5 точное извлечение (доверие 24) [55C26540]
Трек 6 точное извлечение (доверие 24) [80799140]
Трек 7 точное извлечение (доверие 24) [F1BA2B01]
Трек 8 точное извлечение (доверие 24) [5F0BAC86]
Трек 9 точное извлечение (доверие 24) [EA3D8026]
Трек 10 точное извлечение (доверие 24) [D6D6B6D6]
Трек 11 точное извлечение (доверие 24) [55D3B0DD]
Трек 12 точное извлечение (доверие 24) [A7D6794D]

Все треки извлечены точно

Конец отчёта

[CUETools log; Date: 15.05.2024 20:53:30; Version: 2.1.4]
[CTDB TOCID: ZuffFBxW0QiyKMGD6CpHKEe5dok-] found.
Track | CTDB Status
1 | (86/87) Accurately ripped
2 | (86/87) Accurately ripped
3 | (86/87) Accurately ripped
4 | (86/87) Accurately ripped
5 | (86/87) Accurately ripped
6 | (86/87) Accurately ripped
7 | (86/87) Accurately ripped
8 | (86/87) Accurately ripped
9 | (86/87) Accurately ripped
10 | (86/87) Accurately ripped
11 | (86/87) Accurately ripped
12 | (86/87) Accurately ripped
[AccurateRip ID: 0012f0ca-00b2855c-9d0a3e0c] found.
Track [ CRC | V2 ] Status
01 [bd04e544|9b9a0398] (29+42/83) Accurately ripped
02 [cee21187|3234e663] (30+42/84) Accurately ripped
03 [9a0f7203|b9edf13b] (28+42/82) Accurately ripped
04 [d9a27212|7f7e0e9a] (28+42/82) Accurately ripped
05 [55c26540|940bafbd] (29+41/85) Accurately ripped
06 [80799140|cffb2182] (29+40/81) Accurately ripped
07 [f1ba2b01|902c5cba] (29+42/83) Accurately ripped
08 [5f0bac86|07c19abc] (29+42/84) Accurately ripped
09 [ea3d8026|343bc0eb] (29+42/83) Accurately ripped
10 [d6d6b6d6|eea26838] (29+41/81) Accurately ripped
11 [55d3b0dd|fb155e92] (29+42/85) Accurately ripped
12 [a7d6794d|6d789488] (29+42/85) Accurately ripped
Offsetted by -30:
01 [25cf32cc] (04/83) Accurately ripped
02 [cc64cb93] (04/84) Accurately ripped
03 [9ce4853f] (04/82) Accurately ripped
04 [ecca8b3c] (04/82) Accurately ripped
05 [84787f7a] (04/85) Accurately ripped
06 [3608bc10] (04/81) Accurately ripped
07 [249289f5] (04/83) Accurately ripped
08 [7d4a8c0a] (04/84) Accurately ripped
09 [e07fd3ba] (04/83) Accurately ripped
10 [93d23d31] (03/81) Accurately ripped
11 [0928dc50] (04/85) Accurately ripped
12 [c6843eb7] (03/85) Accurately ripped
Offsetted by -18:
01 [957e46fc] (02/83) Accurately ripped
02 [cd63b45b] (02/84) Accurately ripped
03 [355c1727] (02/82) Accurately ripped
04 [4b874df8] (02/82) Accurately ripped
05 [80a9cccf] (02/85) Accurately ripped
06 [98c9a007] (02/81) Accurately ripped
07 [a9d5972d] (02/83) Accurately ripped
08 [3dfe32a2] (02/84) Accurately ripped
09 [b13218b2] (02/83) Accurately ripped
10 [2c2f06a8] (02/81) Accurately ripped
11 [4b8a03ad] (02/85) Accurately ripped
12 [20a522f3] (02/85) Accurately ripped
Offsetted by 30:
01 [543a97bc] (03/83) Accurately ripped
02 [d15f577b] (03/84) Accurately ripped
03 [973a5ec7] (03/82) Accurately ripped
04 [c67a58e8] (03/82) Accurately ripped
05 [30652600] (03/85) Accurately ripped
06 [95a049da] (03/81) Accurately ripped
07 [bee1cc0d] (03/83) Accurately ripped
08 [40cccd02] (04/84) Accurately ripped
09 [f3fb2c92] (03/83) Accurately ripped
10 [a15ce97e] (03/81) Accurately ripped
11 [92376bd7] (03/85) Accurately ripped
12 [8928b3e3] (04/85) Accurately ripped
Offsetted by -42:
01 [b6201e9c] (00/83) No match (V2 was not tested)
02 [cb65e2cb] (00/84) No match (V2 was not tested)
03 [046cf357] (00/82) No match (V2 was not tested)
04 [8e0dc880] (00/82) No match (V2 was not tested)
05 [30126db6] (00/85) No match (V2 was not tested)
06 [1fe04998] (00/81) No match (V2 was not tested)
07 [9f4f7cbd] (00/83) No match (V2 was not tested)
08 [bc96e572] (00/84) No match (V2 was not tested)
09 [0fcd8ec2] (00/83) No match (V2 was not tested)
10 [88cd1f3e] (00/81) No match (V2 was not tested)
11 [fc96a813] (00/85) No match (V2 was not tested)
12 [6c635a7b] (00/85) No match (V2 was not tested)
Offsetted by -6:
01 [052d5b2c] (00/83) No match
02 [ce629d23] (00/84) No match
03 [cdd3a90f] (00/82) No match
04 [aa4410b4] (00/82) No match
05 [e61955d0] (00/85) No match
06 [bb876eb6] (00/81) No match
07 [2f18a465] (00/83) No match
08 [feb1d93a] (00/84) No match
09 [81e45daa] (00/83) No match
10 [0dca3177] (00/81) No match
11 [1cea333e] (00/85) No match
12 [7ac6072f] (00/85) No match (V2 was not tested)
Offsetted by 6:
01 [74dc6f5c] (00/83) No match (V2 was not tested)
02 [cf6185eb] (00/84) No match (V2 was not tested)
03 [664b3af7] (00/82) No match (V2 was not tested)
04 [0900d370] (00/82) No match (V2 was not tested)
05 [b05de077] (03/85) Accurately ripped
06 [3820a997] (00/81) No match (V2 was not tested)
07 [b45bb19d] (00/83) No match (V2 was not tested)
08 [bf657fd2] (00/84) No match (V2 was not tested)
09 [5296a2a2] (00/83) No match (V2 was not tested)
10 [4e62aab3] (00/81) No match (V2 was not tested)
11 [b3ce4572] (02/85) Accurately ripped
12 [d4e6eb6b] (02/85) Accurately ripped

Track Peak [ CRC32 ] [W/O NULL] [ LOG ]
– 100,0 [4FD4FBC9] [F8959443] CRC32
01 100,0 [FC62A16F] [7E68E6EA]
02 91,4 [03495154] [EDE49CCF]
03 82,7 [83F9AE5C] [528EF53B]
04 99,9 [D1A8CA00] [978D9E7E]
05 99,9 [0CCD8F93] [92A793D0]
06 100,0 [2528B43B] [91A01C17]
07 80,7 [DB78E218] [01C1AF9C]
08 100,0 [8C6D4A58] [187F364A]
09 100,0 [B82DC6AC] [3EA34E1B]
10 100,0 [5C4E1F74] [59F7492E]
11 99,9 [583BC98E] [9006A997]
12 95,2 [39470F71] [6EC05D49]

Thanks to alonzo