Tags
Language
Tags

Paul Bley - Time Will Tell (1995) {ECM 1537}

Posted By: tiburon
Paul Bley - Time Will Tell (1995) {ECM 1537}

Paul Bley - Time Will Tell (1995) {ECM 1537}
EAC 1.0b1 | FLAC tracks level 8 | Cue+Log+M3U | Full Scans 300dpi | 258MB + 5% Recovery
MP3 CBR 320 Kbps | 161MB + 5% Recovery
Genre: Jazz, Avant-Garde Jazz

That pianist Paul Bley, reedman Evan Parker, and bassist Barre Phillips had never played as a group before flipping the coin of Time Will Tell matters little. Whether you call heads or tails, you win. The fact that Phillips had played with the two who hadn’t emerges through the sensitive approach he elicits from each. By the same token, one cannot simply say that he tempers what we might be expecting from two powerhouses of the free improv universe. Rather, he spotlights the tenderness already flowing within.
Track List
01. Poetic Justice (17:22)
02. Time Will Tell (4:25)
03. Above The Tree Line (4:50)
04. You Will, Oscar, You Will (4:58)
05. Sprung (5:22)
06. No Questions (5:30)
07. Vine Laces (4:05)
08. Clawback (3:16)
09. Marsh Tides (5:44)
10. Instance (4:26)
11. Burlesque (7:15)

musicians
Paul Bley - piano
Evan Parker - tenor and soprano saxes
Barre Phillips - double bass

Produced by Steve Lake


Exact Audio Copy V1.0 beta 1 from 15. November 2010

EAC extraction logfile from 21. February 2012, 16:14

Paul Bley-Evan Parker-Barre Phillips / Time Will Tell

Used drive : Optiarc DVD RW AD-7710H Adapter: 1 ID: 0

Read mode : Secure
Utilize accurate stream : Yes
Defeat audio cache : Yes
Make use of C2 pointers : No

Read offset correction : 48
Overread into Lead-In and Lead-Out : No
Fill up missing offset samples with silence : Yes
Delete leading and trailing silent blocks : No
Null samples used in CRC calculations : Yes
Used interface : Native Win32 interface for Win NT & 2000
Gap handling : Appended to previous track

Used output format : User Defined Encoder
Selected bitrate : 896 kBit/s
Quality : High
Add ID3 tag : No
Command line compressor : C:\Program Files\Exact Audio Copy\FLAC\FLAC.EXE
Additional command line options : -8 -V -T "ARTIST=%a" -T "TITLE=%t" -T "ALBUM=%g" -T "DATE=%y" -T "TRACKNUMBER=%n" -T "GENRE=%m" -T "COMMENT=%e" %j–picture="%i"%j %s -o %d


TOC of the extracted CD

Track | Start | Length | Start sector | End sector
––––––––––––––––––––––––––––-
1 | 0:00.33 | 17:22.05 | 33 | 78187
2 | 17:22.38 | 4:25.17 | 78188 | 98079
3 | 21:47.55 | 4:49.70 | 98080 | 119824
4 | 26:37.50 | 4:57.58 | 119825 | 142157
5 | 31:35.33 | 5:22.27 | 142158 | 166334
6 | 36:57.60 | 5:30.20 | 166335 | 191104
7 | 42:28.05 | 4:04.68 | 191105 | 209472
8 | 46:32.73 | 3:15.47 | 209473 | 224144
9 | 49:48.45 | 5:43.58 | 224145 | 249927
10 | 55:32.28 | 4:26.25 | 249928 | 269902
11 | 59:58.53 | 7:15.02 | 269903 | 302529


Track 1

Filename C:\MY RIPS\01 - Poetic Justice.wav

Pre-gap length 0:00:02.33

Peak level 87.5 %
Extraction speed 3.8 X
Track quality 100.0 %
Test CRC 469FC7DB
Copy CRC 469FC7DB
Cannot be verified as accurate (confidence 11) [5D85AE83], AccurateRip returned [D9409BA2]
Copy OK

Track 2

Filename C:\MY RIPS\02 - Time Will Tell.wav

Pre-gap length 0:00:03.45

Peak level 62.1 %
Extraction speed 4.1 X
Track quality 100.0 %
Test CRC 22C3B267
Copy CRC 22C3B267
Cannot be verified as accurate (confidence 11) [A4AF6633], AccurateRip returned [10E8DEE9]
Copy OK

Track 3

Filename C:\MY RIPS\03 - Above the Tree Line.wav

Peak level 73.3 %
Extraction speed 4.4 X
Track quality 100.0 %
Test CRC 01A03B0A
Copy CRC 01A03B0A
Cannot be verified as accurate (confidence 11) [C26414D9], AccurateRip returned [A1023A8B]
Copy OK

Track 4

Filename C:\MY RIPS\04 - You Will, Oscar, You Will.wav

Pre-gap length 0:00:00.35

Peak level 68.1 %
Extraction speed 4.6 X
Track quality 100.0 %
Test CRC 56AAA90A
Copy CRC 56AAA90A
Cannot be verified as accurate (confidence 11) [8D87139F], AccurateRip returned [C697DFE1]
Copy OK

Track 5

Filename C:\MY RIPS\05 - Sprung.wav

Pre-gap length 0:00:02.15

Peak level 99.9 %
Extraction speed 4.9 X
Track quality 100.0 %
Test CRC 365A51BD
Copy CRC 365A51BD
Cannot be verified as accurate (confidence 11) [6C9243BA], AccurateRip returned [D2888297]
Copy OK

Track 6

Filename C:\MY RIPS\06 - No Questions.wav

Pre-gap length 0:00:04.35

Peak level 73.4 %
Extraction speed 5.2 X
Track quality 100.0 %
Test CRC E58E2D40
Copy CRC E58E2D40
Cannot be verified as accurate (confidence 11) [0885BC7A], AccurateRip returned [2BBFFE9C]
Copy OK

Track 7

Filename C:\MY RIPS\07 - Vine Laces.wav

Pre-gap length 0:00:01.05

Peak level 85.9 %
Extraction speed 5.1 X
Track quality 100.0 %
Test CRC 1A01F034
Copy CRC 1A01F034
Cannot be verified as accurate (confidence 11) [28370200], AccurateRip returned [E0002005]
Copy OK

Track 8

Filename C:\MY RIPS\08 - Clawback.wav

Pre-gap length 0:00:01.73

Peak level 65.8 %
Extraction speed 5.1 X
Track quality 100.0 %
Test CRC 03B47F4A
Copy CRC 03B47F4A
Cannot be verified as accurate (confidence 11) [AADC5E90], AccurateRip returned [3F046688]
Copy OK

Track 9

Filename C:\MY RIPS\09 - Marsh Tides.wav

Pre-gap length 0:00:03.35

Peak level 78.5 %
Extraction speed 5.8 X
Track quality 100.0 %
Test CRC 4AEA2BDB
Copy CRC 4AEA2BDB
Cannot be verified as accurate (confidence 11) [CC612685], AccurateRip returned [3A457C66]
Copy OK

Track 10

Filename C:\MY RIPS\10 - Instance.wav

Pre-gap length 0:00:02.18

Peak level 92.5 %
Extraction speed 1.3 X
Track quality 99.7 %
Test CRC 1C715743
Copy CRC 1C715743
Cannot be verified as accurate (confidence 11) [22611D75], AccurateRip returned [45E156D0]
Copy OK

Track 11

Filename C:\MY RIPS\11 - Burlesque.wav

Pre-gap length 0:00:02.08

Peak level 74.9 %
Extraction speed 2.3 X
Track quality 99.8 %
Test CRC C308AA04
Copy CRC C308AA04
Cannot be verified as accurate (confidence 11) [1CAF2CDC], AccurateRip returned [AAF5001A]
Copy OK


No tracks could be verified as accurate
You may have a different pressing from the one(s) in the database

No errors occurred

End of status report

==== Log checksum 8C45E3AF685B067F5177936DE2A67EE9AEA64272D5A123B18838494848C9FDB5 ====

Paul Bley - Time Will Tell (1995) {ECM 1537}
Paul Bley - Time Will Tell (1995) {ECM 1537}


Thanks to the original ripper