Tags
Language
Tags

Paul Bley - With Gary Peacock (1970) {ECM 1003}

Posted By: tiburon
Paul Bley - With Gary Peacock (1970) {ECM 1003}

Paul Bley - With Gary Peacock (1970) {ECM 1003}
X Lossless Decoder | FLAC tracks level 8 | Cue+Log+M3U | Full Scans 300dpi | 174MB + 5% Recovery
MP3 CBR 320 Kbps | 86MB + 5% Recovery
Genre: Jazz, Post-Bop
Paul Bley - With Gary Peacock (1970) {ECM 1003}

Gary Peacock shares front-cover billing with Paul Bley on this 1970 session, but drummer Paul Motian is also present on the first five tracks. (Billy Elgart replaces Motian on the remaining three.) There's a curiously straight-ahead, tempo-driven feel to this short and sweet disc, quite unlike the free aesthetic that Bley, Peacock, and Motian put forward when they returned to ECM as a trio on 1999's Not Two, Not One.
Track List
01. Blues
02. Getting Started
03. When Will The Blues Leave
04. Long Ago And Far Away
05. Moor
06. Gary
07. Big Foot
08. Albert's Love Theme

musicians
Paul Bley - piano
Gary Peacock - bass
Paul Motian - drums
Billy Elgart - drums

Produced by Manfred Eicher


X Lossless Decoder version 20090320 (105.1)

XLD extraction logfile from 2009-08-23 13:36:15 -0700

Paul Bley, Gary Peacock / Paul Bley With Gary Peacock

Used drive : MATSHITA DVD-R UJ-867 (revision HA13)

Use cdparanoia mode : YES (CDParanoia III 10.2 engine)
Disable audio cache : OK for the drive with cache less than 2750KB
Make use of C2 pointers : NO
Read offset correction : 102
Max retry count : 100

TOC of the extracted CD
Track | Start | Length | Start sector | End sector
––––––––––––––––––––––––––––-
1 | 00:00:00 | 04:26:40 | 0 | 19989
2 | 04:26:40 | 04:26:35 | 19990 | 39974
3 | 08:53:00 | 03:54:45 | 39975 | 57569
4 | 12:47:45 | 04:18:10 | 57570 | 76929
5 | 17:05:55 | 03:29:07 | 76930 | 92611
6 | 20:34:62 | 04:42:15 | 92612 | 113776
7 | 25:17:02 | 03:27:60 | 113777 | 129361
8 | 28:44:62 | 04:53:55 | 129362 | 151391


Track 01
Filename : /Users/thomasshea/Desktop/Paul Bley with Gary Peacock [FLAC]/01 Paul Bley, Gary Peacock - Blues.flac

CRC32 hash (test run) : B3A34343
CRC32 hash : B3A34343
CRC32 hash (skip zero) : 7035320B
AccurateRip signature : 8ED0D57E
->Accurately ripped! (confidence 1)
Statistics
Read error : 0
Skipped (treated as error) : 0
Edge jitter error (maybe fixed) : 0
Atom jitter error (maybe fixed) : 0
Drift error (maybe fixed) : 0
Dropped bytes error (maybe fixed) : 0
Duplicated bytes error (maybe fixed) : 0

Track 02
Filename : /Users/thomasshea/Desktop/Paul Bley with Gary Peacock [FLAC]/02 Paul Bley, Gary Peacock - Getting Started.flac

CRC32 hash (test run) : 164A2339
CRC32 hash : 164A2339
CRC32 hash (skip zero) : 39FF8430
AccurateRip signature : B4247181
->Accurately ripped! (confidence 1)
Statistics
Read error : 0
Skipped (treated as error) : 0
Edge jitter error (maybe fixed) : 0
Atom jitter error (maybe fixed) : 0
Drift error (maybe fixed) : 0
Dropped bytes error (maybe fixed) : 0
Duplicated bytes error (maybe fixed) : 0

Track 03
Filename : /Users/thomasshea/Desktop/Paul Bley with Gary Peacock [FLAC]/03 Paul Bley, Gary Peacock - When Will The Blues Leave.flac

CRC32 hash (test run) : A493D979
CRC32 hash : A493D979
CRC32 hash (skip zero) : 9C8F55EE
AccurateRip signature : 2A1F5CEA
->Accurately ripped! (confidence 1)
Statistics
Read error : 0
Skipped (treated as error) : 0
Edge jitter error (maybe fixed) : 0
Atom jitter error (maybe fixed) : 0
Drift error (maybe fixed) : 0
Dropped bytes error (maybe fixed) : 0
Duplicated bytes error (maybe fixed) : 0

Track 04
Filename : /Users/thomasshea/Desktop/Paul Bley with Gary Peacock [FLAC]/04 Paul Bley, Gary Peacock - Long Ago And Far Away.flac

CRC32 hash (test run) : 359B9172
CRC32 hash : 359B9172
CRC32 hash (skip zero) : 7F031FAF
AccurateRip signature : D541A46B
->Accurately ripped! (confidence 1)
Statistics
Read error : 0
Skipped (treated as error) : 0
Edge jitter error (maybe fixed) : 0
Atom jitter error (maybe fixed) : 0
Drift error (maybe fixed) : 0
Dropped bytes error (maybe fixed) : 0
Duplicated bytes error (maybe fixed) : 0

Track 05
Filename : /Users/thomasshea/Desktop/Paul Bley with Gary Peacock [FLAC]/05 Paul Bley, Gary Peacock - Moor.flac

CRC32 hash (test run) : CF5EDA57
CRC32 hash : CF5EDA57
CRC32 hash (skip zero) : 9AB7BB1A
AccurateRip signature : 5796F804
->Accurately ripped! (confidence 1)
Statistics
Read error : 0
Skipped (treated as error) : 0
Edge jitter error (maybe fixed) : 0
Atom jitter error (maybe fixed) : 0
Drift error (maybe fixed) : 0
Dropped bytes error (maybe fixed) : 0
Duplicated bytes error (maybe fixed) : 0

Track 06
Filename : /Users/thomasshea/Desktop/Paul Bley with Gary Peacock [FLAC]/06 Paul Bley, Gary Peacock - Gary.flac

CRC32 hash (test run) : D6669786
CRC32 hash : D6669786
CRC32 hash (skip zero) : 8CCF55EB
AccurateRip signature : 77B34650
->Accurately ripped! (confidence 1)
Statistics
Read error : 0
Skipped (treated as error) : 0
Edge jitter error (maybe fixed) : 0
Atom jitter error (maybe fixed) : 0
Drift error (maybe fixed) : 0
Dropped bytes error (maybe fixed) : 0
Duplicated bytes error (maybe fixed) : 0

Track 07
Filename : /Users/thomasshea/Desktop/Paul Bley with Gary Peacock [FLAC]/07 Paul Bley, Gary Peacock - Big Foot.flac

CRC32 hash (test run) : 3B9D912E
CRC32 hash : 3B9D912E
CRC32 hash (skip zero) : 15E4BDEF
AccurateRip signature : 1CCF0981
->Accurately ripped! (confidence 1)
Statistics
Read error : 0
Skipped (treated as error) : 0
Edge jitter error (maybe fixed) : 0
Atom jitter error (maybe fixed) : 0
Drift error (maybe fixed) : 0
Dropped bytes error (maybe fixed) : 0
Duplicated bytes error (maybe fixed) : 0

Track 08
Filename : /Users/thomasshea/Desktop/Paul Bley with Gary Peacock [FLAC]/08 Paul Bley, Gary Peacock - Albert's Love Theme.flac

CRC32 hash (test run) : F88A9B7A
CRC32 hash : F88A9B7A
CRC32 hash (skip zero) : 8618E271
AccurateRip signature : 57809A40
->Accurately ripped! (confidence 1)
Statistics
Read error : 0
Skipped (treated as error) : 0
Edge jitter error (maybe fixed) : 0
Atom jitter error (maybe fixed) : 0
Drift error (maybe fixed) : 0
Dropped bytes error (maybe fixed) : 0
Duplicated bytes error (maybe fixed) : 0

No errors occurred

End of status report


––––––––––––––––––––––––––––––––––––––––
Analyzed: Paul Bley, Gary Peacock / Paul Bley With Gary Peacock
––––––––––––––––––––––––––––––––––––––––

DR Peak RMS Duration Track
––––––––––––––––––––––––––––––––––––––––
DR12 -1.84 dB -18.63 dB 4:27 01-Blues
DR13 -3.11 dB -21.90 dB 4:26 02-Getting Started
DR12 -1.21 dB -17.49 dB 3:55 03-When Will The Blues Leave
DR12 -1.43 dB -20.55 dB 4:18 04-Long Ago And Far Away
DR12 -1.30 dB -17.53 dB 3:29 05-Moor
DR14 -0.79 dB -21.12 dB 4:42 06-Gary
DR11 -1.78 dB -15.26 dB 3:28 07-Big Foot
DR12 -1.15 dB -19.10 dB 4:54 08-Albert's Love Theme
––––––––––––––––––––––––––––––––––––––––

Number of tracks: 8
Official DR value: DR12

Samplerate: 44100 Hz
Channels: 2
Bits per sample: 16
Bitrate: 610 kbps
Codec: FLAC
================================================================================

Paul Bley - With Gary Peacock (1970) {ECM 1003}
Paul Bley - With Gary Peacock (1970) {ECM 1003}
Paul Bley - With Gary Peacock (1970) {ECM 1003}


Thanks to the original ripper