Tags
Language
Tags

Paul Ji - Prodiges: Chopin, Liszt, Tchaikovsky, Rachmaninov, Debussy, Schumann, Scriabin (2020)

Posted By: ArlegZ
Paul Ji - Prodiges: Chopin, Liszt, Tchaikovsky, Rachmaninov, Debussy, Schumann, Scriabin (2020)

Paul Ji - Prodiges: Chopin, Liszt, Tchaikovsky, Rachmaninov, Debussy, Schumann, Scriabin (2020)
EAC | FLAC | Image (Cue & Log) ~ 248 Mb | Total time: 76:29 | Scans included
Classical | Label: Warner Classics | # 0190295158590 | Recorded: 2020

Paul Ji, winner of the Prodiges competition in 2019, is a 16-year old pianist, born in Chicago, USA to a Chinese family and raised in France since the age of five. This album, contains a selection of 16 romantic masterpieces for the piano.

Performer:
Paul Ji, piano

Track List:
Frédéric Chopin
01. Grande Valse brillante in E flat major, Op.18
Franz Liszt
02. Grandes Études de Paganini, S141 - No.3 La Campanella
Pyotr Ilyich Tchaikovsky
03. The Seasons, Op.37a - No.6 June. Barcarolle
Sergei Rachmaninov
04. 10 Preludes, Op.23 - No.5 in G minor
Claude Debussy
05. Children's Corner, CD 119 - No.1 Doctor Gradus ad Parnassum
Frédéric Chopin
06. 12 Études, Op.10 - No.5 in G flat major
Franz Liszt
07. Paraphrase de concert sur 'Rigoletto', S434
Robert Schumann
08. Kinderszenen, Op.15 - No.7 Träumerei
Alexander Scriabin
09. 12 Études, Op.8 - No.12 in D sharp minor
Frédéric Chopin
10. Nocturne No.20 in C sharp minor, Op. Posth.
Franz Liszt
11. Consolations, S172 - No.3 in D flat major
Pyotr Ilyich Tchaikovsky
12. 18 Pieces, Op.72 - No.5 Méditation
Frédéric Chopin
13. 12 Études, Op.10 - No.3 in E major 'Tristesse'
Franz Liszt
14. Liebesträume, S541 - No.3 in A flat major
Pyotr Ilyich Tchaikovsky (arr. Mikhail Plentev)
15. The Nutcracker, Op.71 - No.7 Pas de deux
Frédéric Chopin
16. Polonaise héroïque in A flat major, Op.53


Exact Audio Copy V1.5 from 20. February 2020

EAC extraction logfile from 30. April 2021, 22:53

Paul Ji / Prodiges

Used drive : ASUS SDRW-08U7M-U Adapter: 1 ID: 0

Read mode : Secure
Utilize accurate stream : Yes
Defeat audio cache : Yes
Make use of C2 pointers : No

Read offset correction : 6
Overread into Lead-In and Lead-Out : No
Fill up missing offset samples with silence : Yes
Delete leading and trailing silent blocks : No
Null samples used in CRC calculations : Yes
Used interface : Native Win32 interface for Win NT & 2000

Used output format : User Defined Encoder
Selected bitrate : 128 kBit/s
Quality : High
Add ID3 tag : No
Command line compressor : C:\Program Files (x86)\Exact Audio Copy\Flac\flac.exe
Additional command line options : -V -8 -T "Date=%year%" -T "Genre=%genre%" %source%


TOC of the extracted CD

Track | Start | Length | Start sector | End sector
––––––––––––––––––––––––––––-
1 | 0:00.00 | 5:56.04 | 0 | 26703
2 | 5:56.04 | 4:55.43 | 26704 | 48871
3 | 10:51.47 | 5:39.46 | 48872 | 74342
4 | 16:31.18 | 4:28.08 | 74343 | 94450
5 | 20:59.26 | 2:45.72 | 94451 | 106897
6 | 23:45.23 | 1:47.73 | 106898 | 114995
7 | 25:33.21 | 7:45.04 | 114996 | 149874
8 | 33:18.25 | 3:21.53 | 149875 | 165002
9 | 36:40.03 | 2:32.53 | 165003 | 176455
10 | 39:12.56 | 4:49.61 | 176456 | 198191
11 | 44:02.42 | 4:11.39 | 198192 | 217055
12 | 48:14.06 | 5:42.00 | 217056 | 242705
13 | 53:56.06 | 5:03.14 | 242706 | 265444
14 | 58:59.20 | 5:07.21 | 265445 | 288490
15 | 64:06.41 | 5:42.52 | 288491 | 314192
16 | 69:49.18 | 6:38.04 | 314193 | 344046


Range status and errors

Selected range

Filename C:\temp\Prodiges - Paul Ji - 2020\Prodiges.wav

Peak level 100.0 %
Extraction speed 5.3 X
Range quality 100.0 %
Test CRC 5EE8CF3F
Copy CRC 5EE8CF3F
Copy OK

No errors occurred


AccurateRip summary

Track 1 accurately ripped (confidence 1) [3797212E] (AR v2)
Track 2 accurately ripped (confidence 1) [19BF2CBC] (AR v2)
Track 3 accurately ripped (confidence 1) [C9B588FC] (AR v2)
Track 4 accurately ripped (confidence 1) [DD4E289F] (AR v2)
Track 5 accurately ripped (confidence 1) [42CC8C48] (AR v2)
Track 6 accurately ripped (confidence 1) [DFF19AB5] (AR v2)
Track 7 accurately ripped (confidence 1) [22A8A08F] (AR v2)
Track 8 accurately ripped (confidence 1) [03F745C2] (AR v2)
Track 9 accurately ripped (confidence 1) [0F561EE4] (AR v2)
Track 10 accurately ripped (confidence 1) [2EAA5CA0] (AR v2)
Track 11 accurately ripped (confidence 1) [E15F1EF0] (AR v2)
Track 12 accurately ripped (confidence 1) [5581D824] (AR v2)
Track 13 accurately ripped (confidence 1) [5AB6C9C7] (AR v2)
Track 14 accurately ripped (confidence 1) [336C4AF4] (AR v2)
Track 15 accurately ripped (confidence 1) [198F5F44] (AR v2)
Track 16 accurately ripped (confidence 1) [42152A90] (AR v2)

All tracks accurately ripped

End of status report

==== Log checksum CEECDD2C8EC58856679725ADC412E1011790F0016363577BEE525C12752911B7 ====


Thanks to the original releaser