Tags
Language
Tags

Paul Van Nevel, Huelgas-Ensemble - The Landscape of the Polyphonists (2022)

Posted By: ArlegZ
Paul Van Nevel, Huelgas-Ensemble - The Landscape of the Polyphonists (2022)

Paul Van Nevel, Huelgas-Ensemble - The Landscape of the Polyphonists (2022)
EAC | FLAC | Image (Cue & Log) ~ 334 Mb | Total time: 38:47+29:55 | Scans included
Classical | Label: Deutsche Harmonia Mundi | # 19439955002 | Recorded: 2021

Auf »The Landscape of the Polyphonists« präsentieren das Huelgas Ensemble und Paul Van Nevel auf zwei fantastischen CDs den intensiven melancholischen und imitatorischen Stil der französisch-flämischen polyphonen Musik und erkunden, wie die Musik durch den besonderen Charakter der Landschaft, in der jeder Komponist sein Leben verbrachte, geprägt wurde. 24 ausgewählte Landschaftsaufnahmen und Bilder von flämischen Kathedralen und ihrer Umgebung versetzen den Zuhörer in die Welt der flämischen Länder der Renaissance, während das Huelgas Ensemble die Werke von außergewöhnlichen Komponisten wie Antoine Busnois, Nicholas Gombert, Josquin Desprez sowie von weniger bekannten, aber ebenso bemerkenswerten Komponisten wie Josquin Baston, Jean l’Héritier oder Jean Mouton aufführt. Das Publikum kann die komplexe Wechselwirkung zwischen historischen Landschaften, Architektur und Musik an ihren jeweiligen Herkunftsorten unmittelbar erleben.

Performer:
Huelgas-Ensemble
Paul Van Nevel

Track List:
CD1:
Johannes Symonis Hasprois (fl1378-1428)
01. Ma douce amour
Antoine Busnois (1430-1492)
02. Bel Acueil
Johannes Ockeghem (c1420-1497)
03. 'Missa Caput': Sanctus
Josquin des Prez (c1450-1521)
04. Cueur langoreulx
05. 'Missa Malheur me bat': Agnus Dei
Antoine de Févin (c1470-c1511)
06. Lamentations pour le Jeudi Saint
Jean Mouton (1459-1522)
07. Qui ne regrettoit
CD2:
Nicolle des Celliers de Hesdin (?-1538)
01. Parasti in dulcedine tua
Jean Lhéritier (1480-1551)
02. Locutus est Dominus
Josquin Baston (fl1542-63)
03. Ung souvenir me conforte
Pierre de Manchicourt (c1510-1564)
04. 'Missa Veni Sancte Spiritus': Agnus Dei
Nicolas Gombert (1495-1560)
05. O malheureuse journée
06. 'Missa Tempore Paschali': Agnus Dei


Exact Audio Copy V1.3 from 2. September 2016

EAC extraction logfile from 29. March 2022, 16:05

Huelgas Ensemble / The Landscape of the Polyphonists

Used drive : HL-DT-STDVD+-RW GT10N Adapter: 1 ID: 1

Read mode : Secure
Utilize accurate stream : Yes
Defeat audio cache : Yes
Make use of C2 pointers : No

Read offset correction : 102
Overread into Lead-In and Lead-Out : No
Fill up missing offset samples with silence : Yes
Delete leading and trailing silent blocks : No
Null samples used in CRC calculations : Yes
Used interface : Native Win32 interface for Win NT & 2000

Used output format : User Defined Encoder
Selected bitrate : 1024 kBit/s
Quality : High
Add ID3 tag : No
Command line compressor : C:\Program Files (x86)\Exact Audio Copy\FLAC\FLAC.EXE
Additional command line options : -6 -V -T "ARTIST=%artist%" -T "TITLE=%title%" -T "ALBUM=%albumtitle%" -T "DATE=%year%" -T "TRACKNUMBER=%tracknr%" -T "GENRE=%genre%" -T "COMMENT=%comment%" -T "BAND=%albuminterpret%" -T "ALBUMARTIST=%albuminterpret%" -T "COMPOSER=%composer%" %haslyrics%–tag-from-file=LYRICS="%lyricsfile%"%haslyrics% -T "DISCNUMBER=%cdnumber%" -T "TOTALDISCS=%totalcds%" -T "TOTALTRACKS=%numtracks%" %hascover%–picture="%coverfile%"%hascover% %source% -o %dest%


TOC of the extracted CD

Track | Start | Length | Start sector | End sector
––––––––––––––––––––––––––––-
1 | 0:00.00 | 3:39.01 | 0 | 16425
2 | 3:39.01 | 5:08.44 | 16426 | 39569
3 | 8:47.45 | 8:57.69 | 39570 | 79913
4 | 17:45.39 | 2:57.69 | 79914 | 93257
5 | 20:43.33 | 8:00.43 | 93258 | 129300
6 | 28:44.01 | 7:47.54 | 129301 | 164379
7 | 36:31.55 | 3:36.23 | 164380 | 180602


Range status and errors

Selected range

Filename C:\_RIPs\The Landscape of the Polyphonists . Huelgas Ensemble\Landscape_of_Polyphonists-Huelgas_Ensemble_(CD1).wav

Peak level 77.9 %
Extraction speed 1.7 X
Range quality 99.9 %
Test CRC 290F303D
Copy CRC 290F303D
Copy OK

No errors occurred


AccurateRip summary

Track 1 not present in database
Track 2 not present in database
Track 3 not present in database
Track 4 not present in database
Track 5 not present in database
Track 6 not present in database
Track 7 not present in database

None of the tracks are present in the AccurateRip database

End of status report

–– CUETools DB Plugin V2.1.6

[CTDB TOCID: xUnryMXUUEAgTPAnUuslqvMHzS8-] disk not present in database
Submit result: xUnryMXUUEAgTPAnUuslqvMHzS8- has been uploaded


==== Log checksum 215C947956FD333236D4B98FB0C188ED1330F8358F174945BDE7CA0D879A52CC ====


Exact Audio Copy V1.3 from 2. September 2016

EAC extraction logfile from 29. March 2022, 16:50

Huelgas Ensemble / The Landscape of the Polyphonists

Used drive : HL-DT-STDVD+-RW GT10N Adapter: 1 ID: 1

Read mode : Secure
Utilize accurate stream : Yes
Defeat audio cache : Yes
Make use of C2 pointers : No

Read offset correction : 102
Overread into Lead-In and Lead-Out : No
Fill up missing offset samples with silence : Yes
Delete leading and trailing silent blocks : No
Null samples used in CRC calculations : Yes
Used interface : Native Win32 interface for Win NT & 2000

Used output format : User Defined Encoder
Selected bitrate : 1024 kBit/s
Quality : High
Add ID3 tag : No
Command line compressor : C:\Program Files (x86)\Exact Audio Copy\FLAC\FLAC.EXE
Additional command line options : -6 -V -T "ARTIST=%artist%" -T "TITLE=%title%" -T "ALBUM=%albumtitle%" -T "DATE=%year%" -T "TRACKNUMBER=%tracknr%" -T "GENRE=%genre%" -T "COMMENT=%comment%" -T "BAND=%albuminterpret%" -T "ALBUMARTIST=%albuminterpret%" -T "COMPOSER=%composer%" %haslyrics%–tag-from-file=LYRICS="%lyricsfile%"%haslyrics% -T "DISCNUMBER=%cdnumber%" -T "TOTALDISCS=%totalcds%" -T "TOTALTRACKS=%numtracks%" %hascover%–picture="%coverfile%"%hascover% %source% -o %dest%


TOC of the extracted CD

Track | Start | Length | Start sector | End sector
––––––––––––––––––––––––––––-
1 | 0:00.00 | 7:03.04 | 0 | 31728
2 | 7:03.04 | 5:28.55 | 31729 | 56383
3 | 12:31.59 | 3:17.38 | 56384 | 71196
4 | 15:49.22 | 4:28.54 | 71197 | 91350
5 | 20:18.01 | 5:21.42 | 91351 | 115467
6 | 25:39.43 | 5:02.53 | 115468 | 138170


Range status and errors

Selected range

Filename C:\_RIPs\The Landscape of the Polyphonists . Huelgas Ensemble\Landscape_of_Polyphonists-Huelgas_Ensemble_(CD2).wav

Peak level 79.7 %
Extraction speed 1.4 X
Range quality 99.9 %
Test CRC 520E1F67
Copy CRC 520E1F67
Copy OK

No errors occurred


AccurateRip summary

Track 1 not present in database
Track 2 not present in database
Track 3 not present in database
Track 4 not present in database
Track 5 not present in database
Track 6 not present in database

None of the tracks are present in the AccurateRip database

End of status report

–– CUETools DB Plugin V2.1.6

[CTDB TOCID: BbpH7LPuzYLTjKPCsrX7VZd29vQ-] disk not present in database
Submit result: BbpH7LPuzYLTjKPCsrX7VZd29vQ- has been uploaded


==== Log checksum 78FF3A20C36B3B1205DF716829D4F8A7D4640C926A0C030C4B0E1A58DBEB750D ====

Paul Van Nevel, Huelgas-Ensemble - The Landscape of the Polyphonists (2022)

Thanks to the original releaser