Tags
Language
Tags

Paul Van Nevel, Huelgas Ensemble - Antoine Brumel: Mass, Sequentia "Dies irae" (2001)

Posted By: ArlegZ
Paul Van Nevel, Huelgas Ensemble - Antoine Brumel: Mass, Sequentia "Dies irae" (2001)

Paul Van Nevel, Huelgas Ensemble - Antoine Brumel: Mass, Sequentia "Dies irae" (2001)
EAC | FLAC | Image (Cue & Log) ~ 305 Mb | Total time: 66:48 | Scans included
Classical | Label: Sony Classical | # SMK 89613 | Recorded: 1990

This recording is simply stupendous in terms of the music it presents, the performance, and the recording quality. Brumel was born only 20 years after Josquin but there is a world of difference between their respective compositional styles. Josquin's music cements the accomplishments of his predecesors and shows the way forward. Brumel's music pushes rapidly forward along–and in some senses, away from–that path. The "Missa ecce terra motus", featured on this recording, anticipates such great mid-16th century masterpieces as Tallis's "Spem in alium". The Huelgas Ensemble is in top form here and van Nevel's direction and interpretation are superb.
–Joel Stern

Performer:
Huelgas Ensemble
Paul Van Nevel, director

Track List:
Antoine Brumel (c.1450-c.1520)
Missa "Et ecce terrae motus" a 12 voce
01. Kyrie. Kyrie eleison
02. Kyrie. Christe eleison
03. Kyrie. Kyrie eleison
04. Gloria
05. Credo
06. Sanctus. Sanctus
07. Sanctus. Pleni sunt coeli (a 8 voce)
08. Sanctus. Hosanna
09. Sanctus. Benedictus (a 8 voce)
10. Sanctus. Hosanna
11. Agnus Dei. Agnus Dei I
12. Agnus Dei. Agnus Dei II (a 6 voce)
13. Agnus Dei. Agnus Dei III
14. Sequentia "Dies Irae Dies Illa"


Exact Audio Copy V1.3 from 2. September 2016

EAC extraction logfile from 13. November 2021, 19:26

Huelgas Ensemble / Brumel . Missa Et ecce terrae motus & Sequentia Dies Irae

Used drive : HL-DT-STDVD+-RW GT10N Adapter: 1 ID: 1

Read mode : Secure
Utilize accurate stream : Yes
Defeat audio cache : Yes
Make use of C2 pointers : No

Read offset correction : 102
Overread into Lead-In and Lead-Out : No
Fill up missing offset samples with silence : Yes
Delete leading and trailing silent blocks : No
Null samples used in CRC calculations : Yes
Used interface : Native Win32 interface for Win NT & 2000

Used output format : User Defined Encoder
Selected bitrate : 1024 kBit/s
Quality : High
Add ID3 tag : No
Command line compressor : C:\Program Files (x86)\Exact Audio Copy\FLAC\FLAC.EXE
Additional command line options : -6 -V -T "ARTIST=%artist%" -T "TITLE=%title%" -T "ALBUM=%albumtitle%" -T "DATE=%year%" -T "TRACKNUMBER=%tracknr%" -T "GENRE=%genre%" -T "COMMENT=%comment%" -T "BAND=%albuminterpret%" -T "ALBUMARTIST=%albuminterpret%" -T "COMPOSER=%composer%" %haslyrics%–tag-from-file=LYRICS="%lyricsfile%"%haslyrics% -T "DISCNUMBER=%cdnumber%" -T "TOTALDISCS=%totalcds%" -T "TOTALTRACKS=%numtracks%" %hascover%–picture="%coverfile%"%hascover% %source% -o %dest%


TOC of the extracted CD

Track | Start | Length | Start sector | End sector
––––––––––––––––––––––––––––-
1 | 0:00.00 | 1:39.70 | 0 | 7494
2 | 1:39.70 | 2:45.35 | 7495 | 19904
3 | 4:25.30 | 1:43.20 | 19905 | 27649
4 | 6:08.50 | 10:30.00 | 27650 | 74899
5 | 16:38.50 | 10:54.12 | 74900 | 123961
6 | 27:32.62 | 3:14.33 | 123962 | 138544
7 | 30:47.20 | 1:47.55 | 138545 | 146624
8 | 32:35.00 | 2:23.20 | 146625 | 157369
9 | 34:58.20 | 3:08.55 | 157370 | 171524
10 | 38:07.00 | 2:31.50 | 171525 | 182899
11 | 40:38.50 | 1:46.22 | 182900 | 190871
12 | 42:24.72 | 3:09.03 | 190872 | 205049
13 | 45:34.00 | 2:03.60 | 205050 | 214334
14 | 47:37.60 | 19:11.30 | 214335 | 300689


Range status and errors

Selected range

Filename C:\_RIPs\Brumel . Missa Et ecce terrae motus & Sequentia Dies Irae . Huelgas Ensemble\Brumel-Missa_Et_ecce_terrae_motus-Huelgas_Ensemble.wav

Peak level 99.9 %
Extraction speed 1.8 X
Range quality 99.9 %
Test CRC 8D301BE5
Copy CRC 8D301BE5
Copy OK

No errors occurred


AccurateRip summary

Track 1 accurately ripped (confidence 13) [9617B8D4] (AR v2)
Track 2 accurately ripped (confidence 13) [3FF9C7E6] (AR v2)
Track 3 accurately ripped (confidence 13) [12DD6CE5] (AR v2)
Track 4 accurately ripped (confidence 13) [A61BF043] (AR v2)
Track 5 accurately ripped (confidence 13) [430F28D4] (AR v2)
Track 6 accurately ripped (confidence 13) [2116D993] (AR v2)
Track 7 accurately ripped (confidence 13) [C59033F5] (AR v2)
Track 8 accurately ripped (confidence 13) [66512517] (AR v2)
Track 9 accurately ripped (confidence 13) [77FFE4E6] (AR v2)
Track 10 accurately ripped (confidence 13) [DCAF28A6] (AR v2)
Track 11 accurately ripped (confidence 13) [21C6D305] (AR v2)
Track 12 accurately ripped (confidence 13) [9FD5AFA1] (AR v2)
Track 13 accurately ripped (confidence 13) [3AC2080C] (AR v2)
Track 14 accurately ripped (confidence 13) [5B128D36] (AR v2)

All tracks accurately ripped

End of status report

–– CUETools DB Plugin V2.1.6

[CTDB TOCID: HZxl6sd.WdwOGcEzQAfhWE9yw_0-] found
Submit result: HZxl6sd.WdwOGcEzQAfhWE9yw_0- has been confirmed
Track | CTDB Status
1 | (56/56) Accurately ripped
2 | (56/56) Accurately ripped
3 | (56/56) Accurately ripped
4 | (56/56) Accurately ripped
5 | (56/56) Accurately ripped
6 | (55/56) Accurately ripped
7 | (55/56) Accurately ripped
8 | (56/56) Accurately ripped
9 | (55/56) Accurately ripped
10 | (56/56) Accurately ripped
11 | (56/56) Accurately ripped
12 | (55/56) Accurately ripped
13 | (56/56) Accurately ripped
14 | (55/56) Accurately ripped


==== Log checksum 0713DFB401BADBDC99A2BD0AB3B195143C577EBEC84C7BDB902A8C2018859B9C ====

Paul Van Nevel, Huelgas Ensemble - Antoine Brumel: Mass, Sequentia "Dies irae" (2001)

Thanks to the original releaser